<?xml version="1.0" standalone="no"?>
<!DOCTYPE svg PUBLIC "-//W3C//DTD SVG 1.1//EN" "http://www.w3.org/Graphics/SVG/1.1/DTD/svg11.dtd" >
<svg xmlns="http://www.w3.org/2000/svg" xmlns:xlink="http://www.w3.org/1999/xlink" version="1.1">
<metadata>
Created by FontForge 20190801 at Sat May 25 20:24:13 2024
 By root
Copyright 2022 The Fustat Project Authors (https://github.com/Kief-Type-Foundry/Fustat)
</metadata>
<defs>
<font id="Fustat-Medium" horiz-adv-x="350" >
  <font-face 
    font-family="Fustat Medium"
    font-weight="500"
    font-stretch="normal"
    units-per-em="1000"
    panose-1="0 0 0 0 0 0 0 0 0 0"
    ascent="800"
    descent="-200"
    x-height="501"
    cap-height="700"
    bbox="-173 -526 1261 1011"
    underline-thickness="50"
    underline-position="-125"
    unicode-range="U+0020-FDF2"
  />
<missing-glyph horiz-adv-x="657" 
d="M78 0v700h500v-700h-500zM143 65h370v570h-370v-570zM518 0l-440 667v33h61l439 -667v-33h-60zM78 0v33l440 667h60v-33l-439 -667h-61z" />
    <glyph glyph-name="uniFDF2" unicode="&#xfdf2;" horiz-adv-x="1229" arabic-form="isolated" 
d="M1065 0v746l82 10l3 -8v-501q0 -41 2.5 -82t5 -75.5t5 -55l2.5 -20.5l-15 -14h-85zM839 0v540l82 11l3 -9v-528l-15 -14h-70zM502 0v82h381v-82h-381zM588 0v540l82 11l3 -9v-528l-15 -14h-70zM230 31q-58 0 -99.5 24.5t-64 68t-22.5 97.5q0 47 16 84l7 6
q83 25 152.5 52.5t126.5 58.5l42 -72q-56 -31 -128 -60t-163 -56l36 30q0 -7 -2 -18t-2 -26q0 -32 11.5 -56t35 -37.5t55.5 -13.5q26 0 54 7.5t62 23.5l33 -70q-38 -21 -76 -32t-74 -11zM331 0v82h171v-82h-171zM331 0v447l82 10l3 -8v-449h-85zM502 0v82q12 0 16 -11t4 -29
t-4 -30t-16 -12zM679 634q-35 0 -53.5 22t-18.5 61v57h45l2 -2v-56q0 -42 23 -42q22 0 22 42q0 11 -1.5 24t-3.5 32l2 2h45q3 -19 4.5 -32.5t1.5 -24.5q0 -39 -18 -61t-50 -22zM581 634q-32 0 -50 22t-18 61q0 11 1.5 24.5t4.5 32.5h45l2 -2q-3 -19 -4.5 -32t-1.5 -24
q0 -42 24 -42q8 0 16 4.5t14 11.5l26 -27q-21 -29 -59 -29zM605 837l-1 167l46 7l2 -4v-88q0 -27 2.5 -52.5l2.5 -25.5l-5 -4h-47z" />
    <glyph glyph-name=".notdef" horiz-adv-x="657" 
d="M78 0v700h500v-700h-500zM143 65h370v570h-370v-570zM518 0l-440 667v33h61l439 -667v-33h-60zM78 0v33l440 667h60v-33l-439 -667h-61z" />
    <glyph glyph-name="A" unicode="A" horiz-adv-x="625" 
d="M530 0l-253 679l-7 21h85l266 -692v-8h-91zM4 0v8l266 692h85l-7 -21l-253 -679h-91zM107 180l30 83h361l30 -83h-421z" />
    <glyph glyph-name="Aacute" unicode="&#xc1;" horiz-adv-x="625" 
d="M530 0l-253 679l-7 21h85l266 -692v-8h-91zM4 0v8l266 692h85l-7 -21l-253 -679h-91zM107 180l30 83h361l30 -83h-421zM292 769l73 145h111v-8l-100 -137h-84z" />
    <glyph glyph-name="Abreve" unicode="&#x102;" horiz-adv-x="625" 
d="M530 0l-253 679l-7 21h85l266 -692v-8h-91zM4 0v8l266 692h85l-7 -21l-253 -679h-91zM107 180l30 83h361l30 -83h-421zM313 767q-42 0 -75.5 18.5t-52.5 52t-19 76.5h78q1 -32 20 -55t49 -23t49 23t20 55h78q0 -43 -19 -76.5t-52.5 -52t-75.5 -18.5z" />
    <glyph glyph-name="Acircumflex" unicode="&#xc2;" horiz-adv-x="625" 
d="M530 0l-253 679l-7 21h85l266 -692v-8h-91zM4 0v8l266 692h85l-7 -21l-253 -679h-91zM107 180l30 83h361l30 -83h-421zM156 769l102 145h109l102 -145h-90l-67 84l-67 -84h-89z" />
    <glyph glyph-name="Adieresis" unicode="&#xc4;" horiz-adv-x="625" 
d="M530 0l-253 679l-7 21h85l266 -692v-8h-91zM4 0v8l266 692h85l-7 -21l-253 -679h-91zM107 180l30 83h361l30 -83h-421zM412 784q-25 0 -42 17t-17 42t17 42.5t42 17.5t42.5 -17.5t17.5 -42.5t-17.5 -42t-42.5 -17zM225 784q-25 0 -42 17t-17 42t17 42.5t42 17.5
t42.5 -17.5t17.5 -42.5t-17.5 -42t-42.5 -17z" />
    <glyph glyph-name="Agrave" unicode="&#xc0;" horiz-adv-x="625" 
d="M530 0l-253 679l-7 21h85l266 -692v-8h-91zM4 0v8l266 692h85l-7 -21l-253 -679h-91zM107 180l30 83h361l30 -83h-421zM346 769h-84l-100 137v8h111z" />
    <glyph glyph-name="Amacron" unicode="&#x100;" horiz-adv-x="625" 
d="M530 0l-253 679l-7 21h85l266 -692v-8h-91zM4 0v8l266 692h85l-7 -21l-253 -679h-91zM107 180l30 83h361l30 -83h-421zM157 801v82h313v-82h-313z" />
    <glyph glyph-name="Aogonek" unicode="&#x104;" horiz-adv-x="625" 
d="M530 0l-253 679l-7 21h85l266 -692v-8h-91zM4 0v8l266 692h85l-7 -21l-253 -679h-91zM107 180l30 83h361l30 -83h-421zM576 -209q-50 0 -80.5 28.5t-30.5 75.5q0 44 27 79.5t81 64.5l48 -39q-38 -20 -59 -43t-21 -46q0 -20 13.5 -33t35.5 -13q14 0 26 4l5 -11v-62
q-13 -2 -23.5 -3.5t-21.5 -1.5z" />
    <glyph glyph-name="Aring" unicode="&#xc5;" horiz-adv-x="625" 
d="M530 0l-253 679l-7 21h85l266 -692v-8h-91zM4 0v8l266 692h85l-7 -21l-253 -679h-91zM107 180l30 83h361l30 -83h-421zM314 687q-34 0 -62 15.5t-44 43t-16 60.5q0 34 16 60.5t44 42t62 15.5q35 0 62 -15.5t43 -42t16 -60.5q0 -33 -16 -60.5t-43 -43t-62 -15.5zM314 753
q23 0 38 15.5t15 37.5t-15 37.5t-38 15.5t-38.5 -15.5t-15.5 -37.5t15.5 -37.5t38.5 -15.5z" />
    <glyph glyph-name="Atilde" unicode="&#xc3;" horiz-adv-x="625" 
d="M530 0l-253 679l-7 21h85l266 -692v-8h-91zM4 0v8l266 692h85l-7 -21l-253 -679h-91zM107 180l30 83h361l30 -83h-421zM381 777q-22 0 -39 8t-32 19t-29.5 19t-29.5 8q-17 0 -27.5 -15t-10.5 -38h-71q0 57 28.5 93t74.5 36q21 0 38.5 -8t32.5 -19t29 -19t29 -8
q18 0 28 15t10 38h71q0 -57 -28 -93t-74 -36z" />
    <glyph glyph-name="AE" unicode="&#xc6;" horiz-adv-x="920" 
d="M-12 0l1 9l389 691h85l-4 -21l-374 -679h-97zM124 180l41 83h298v-83h-339zM425 0v700h85v-700h-85zM469 0v82h403v-82h-403zM469 313v83h381v-83h-381zM469 618v82h403v-82h-403z" />
    <glyph glyph-name="B" unicode="B" horiz-adv-x="598" 
d="M125 0v82h215q64 0 97 33.5t33 93.5q0 57 -35 89.5t-95 32.5h-215v80h198q35 0 61 13.5t40 36.5t14 54q0 46 -29.5 74.5t-85.5 28.5h-198v82h198q96 0 150 -51.5t54 -131.5q0 -35 -17 -67t-45 -54t-63 -31v24q44 -6 79.5 -32t57 -65t21.5 -85q0 -94 -57.5 -150.5
t-160.5 -56.5h-217zM78 0v700h85v-700h-85z" />
    <glyph glyph-name="C" unicode="C" horiz-adv-x="707" 
d="M372 -13q-95 0 -168 45.5t-114.5 127t-41.5 190.5q0 110 41.5 191t114.5 126.5t168 45.5q101 0 180 -53.5t117 -152.5l-74 -21l-11 2q-29 70 -84 106t-126 36q-69 0 -123 -34t-85 -97t-31 -149t31 -149t85 -97t123 -34q71 0 126 36.5t84 105.5l11 2l74 -21
q-38 -99 -117 -152.5t-180 -53.5z" />
    <glyph glyph-name="Cacute" unicode="&#x106;" horiz-adv-x="707" 
d="M372 -13q-95 0 -168 45.5t-114.5 127t-41.5 190.5q0 110 41.5 191t114.5 126.5t168 45.5q101 0 180 -53.5t117 -152.5l-74 -21l-11 2q-29 70 -84 106t-126 36q-69 0 -123 -34t-85 -97t-31 -149t31 -149t85 -97t123 -34q71 0 126 36.5t84 105.5l11 2l74 -21
q-38 -99 -117 -152.5t-180 -53.5zM333 769l73 145h111v-8l-100 -137h-84z" />
    <glyph glyph-name="Ccaron" unicode="&#x10c;" horiz-adv-x="707" 
d="M372 -13q-95 0 -168 45.5t-114.5 127t-41.5 190.5q0 110 41.5 191t114.5 126.5t168 45.5q101 0 180 -53.5t117 -152.5l-74 -21l-11 2q-29 70 -84 106t-126 36q-69 0 -123 -34t-85 -97t-31 -149t31 -149t85 -97t123 -34q71 0 126 36.5t84 105.5l11 2l74 -21
q-38 -99 -117 -152.5t-180 -53.5zM213 868h89l67 -84l67 84h90l-102 -145h-109z" />
    <glyph glyph-name="Ccedilla" unicode="&#xc7;" horiz-adv-x="707" 
d="M372 -13q-95 0 -168 45.5t-114.5 127t-41.5 190.5q0 110 41.5 191t114.5 126.5t168 45.5q101 0 180 -53.5t117 -152.5l-74 -21l-11 2q-29 70 -84 106t-126 36q-69 0 -123 -34t-85 -97t-31 -149t31 -149t85 -97t123 -34q71 0 126 36.5t84 105.5l11 2l74 -21
q-38 -99 -117 -152.5t-180 -53.5zM347 -209q-13 0 -27.5 3.5t-31.5 14.5l18 52l9 2q8 -4 15.5 -6t13.5 -2q15 0 23.5 8t8.5 19q0 13 -8.5 21t-23.5 8t-24 -8l-31 42l47 68h75l-65 -88l-9 40q5 1 10 1.5t10 0.5q36 0 60.5 -24.5t24.5 -60.5q0 -40 -28 -65.5t-67 -25.5z" />
    <glyph glyph-name="Cdotaccent" unicode="&#x10a;" horiz-adv-x="707" 
d="M372 -13q-95 0 -168 45.5t-114.5 127t-41.5 190.5q0 110 41.5 191t114.5 126.5t168 45.5q101 0 180 -53.5t117 -152.5l-74 -21l-11 2q-29 70 -84 106t-126 36q-69 0 -123 -34t-85 -97t-31 -149t31 -149t85 -97t123 -34q71 0 126 36.5t84 105.5l11 2l74 -21
q-38 -99 -117 -152.5t-180 -53.5zM370 785q-25 0 -42 17t-17 42t17 42.5t42 17.5t42.5 -17.5t17.5 -42.5t-17.5 -42t-42.5 -17z" />
    <glyph glyph-name="D" unicode="D" horiz-adv-x="685" 
d="M123 0v82h195q73 0 124.5 33.5t79.5 93.5t28 141q0 82 -28 142t-79.5 93t-124.5 33h-195v82h195q99 0 170.5 -44t109.5 -123t38 -183t-38 -183t-109.5 -123t-170.5 -44h-195zM78 0v700h85v-700h-85z" />
    <glyph glyph-name="Dcaron" unicode="&#x10e;" horiz-adv-x="685" 
d="M123 0v82h195q73 0 124.5 33.5t79.5 93.5t28 141q0 82 -28 142t-79.5 93t-124.5 33h-195v82h195q99 0 170.5 -44t109.5 -123t38 -183t-38 -183t-109.5 -123t-170.5 -44h-195zM78 0v700h85v-700h-85zM160 868h89l67 -84l67 84h90l-102 -145h-109z" />
    <glyph glyph-name="Dcroat" unicode="&#x110;" horiz-adv-x="685" 
d="M123 0v82h195q73 0 124.5 33.5t79.5 93.5t28 141q0 82 -28 142t-79.5 93t-124.5 33h-195v82h195q99 0 170.5 -44t109.5 -123t38 -183t-38 -183t-109.5 -123t-170.5 -44h-195zM78 0v700h85v-700h-85zM1 308v85h315v-85h-315z" />
    <glyph glyph-name="Eth" unicode="&#xd0;" horiz-adv-x="685" 
d="M123 0v82h195q73 0 124.5 33.5t79.5 93.5t28 141q0 82 -28 142t-79.5 93t-124.5 33h-195v82h195q99 0 170.5 -44t109.5 -123t38 -183t-38 -183t-109.5 -123t-170.5 -44h-195zM78 0v700h85v-700h-85zM1 308v85h315v-85h-315z" />
    <glyph glyph-name="E" unicode="E" horiz-adv-x="573" 
d="M78 0v700h85v-700h-85zM122 0v82h403v-82h-403zM122 313v83h381v-83h-381zM122 618v82h403v-82h-403z" />
    <glyph glyph-name="Eacute" unicode="&#xc9;" horiz-adv-x="573" 
d="M78 0v700h85v-700h-85zM122 0v82h403v-82h-403zM122 313v83h381v-83h-381zM122 618v82h403v-82h-403zM252 769l73 145h111v-8l-100 -137h-84z" />
    <glyph glyph-name="Ecaron" unicode="&#x11a;" horiz-adv-x="573" 
d="M78 0v700h85v-700h-85zM122 0v82h403v-82h-403zM122 313v83h381v-83h-381zM122 618v82h403v-82h-403zM133 868h89l67 -84l67 84h90l-102 -145h-109z" />
    <glyph glyph-name="Ecircumflex" unicode="&#xca;" horiz-adv-x="573" 
d="M78 0v700h85v-700h-85zM122 0v82h403v-82h-403zM122 313v83h381v-83h-381zM122 618v82h403v-82h-403zM133 769l102 145h109l102 -145h-90l-67 84l-67 -84h-89z" />
    <glyph glyph-name="Edieresis" unicode="&#xcb;" horiz-adv-x="573" 
d="M78 0v700h85v-700h-85zM122 0v82h403v-82h-403zM122 313v83h381v-83h-381zM122 618v82h403v-82h-403zM388 784q-25 0 -42 17t-17 42t17 42.5t42 17.5t42.5 -17.5t17.5 -42.5t-17.5 -42t-42.5 -17zM201 784q-25 0 -42 17t-17 42t17 42.5t42 17.5t42.5 -17.5t17.5 -42.5
t-17.5 -42t-42.5 -17z" />
    <glyph glyph-name="Edotaccent" unicode="&#x116;" horiz-adv-x="573" 
d="M78 0v700h85v-700h-85zM122 0v82h403v-82h-403zM122 313v83h381v-83h-381zM122 618v82h403v-82h-403zM289 785q-25 0 -42 17t-17 42t17 42.5t42 17.5t42.5 -17.5t17.5 -42.5t-17.5 -42t-42.5 -17z" />
    <glyph glyph-name="Egrave" unicode="&#xc8;" horiz-adv-x="573" 
d="M78 0v700h85v-700h-85zM122 0v82h403v-82h-403zM122 313v83h381v-83h-381zM122 618v82h403v-82h-403zM322 769h-84l-100 137v8h111z" />
    <glyph glyph-name="Emacron" unicode="&#x112;" horiz-adv-x="573" 
d="M78 0v700h85v-700h-85zM122 0v82h403v-82h-403zM122 313v83h381v-83h-381zM122 618v82h403v-82h-403zM133 801v82h313v-82h-313z" />
    <glyph glyph-name="Eogonek" unicode="&#x118;" horiz-adv-x="573" 
d="M78 0v700h85v-700h-85zM122 0v82h403v-82h-403zM122 313v83h381v-83h-381zM122 618v82h403v-82h-403zM480 -209q-50 0 -80.5 28.5t-30.5 75.5q0 44 27 79.5t81 64.5l48 -39q-38 -20 -59 -43t-21 -46q0 -20 13.5 -33t35.5 -13q14 0 26 4l5 -11v-62q-13 -2 -23.5 -3.5
t-21.5 -1.5z" />
    <glyph glyph-name="F" unicode="F" horiz-adv-x="552" 
d="M78 0v700h85v-700h-85zM122 308v83h361v-83h-361zM122 618v82h391v-82h-391z" />
    <glyph glyph-name="G" unicode="G" horiz-adv-x="761" 
d="M379 -13q-96 0 -171 45.5t-117.5 127.5t-42.5 191q0 108 42 189.5t117.5 127t173.5 45.5q102 0 179 -52t112 -142l-71 -21l-11 2q-30 63 -83.5 96.5t-123.5 33.5q-72 0 -128 -34t-88 -97t-32 -147q0 -86 32 -149.5t88.5 -98t128.5 -34.5q67 0 119 31t81 82t29 111v37
l43 -32h-260v82h282l14 -14v-367h-78v165h30q-23 -58 -63.5 -98t-92.5 -60t-109 -20z" />
    <glyph glyph-name="Gbreve" unicode="&#x11e;" horiz-adv-x="761" 
d="M379 -13q-96 0 -171 45.5t-117.5 127.5t-42.5 191q0 108 42 189.5t117.5 127t173.5 45.5q102 0 179 -52t112 -142l-71 -21l-11 2q-30 63 -83.5 96.5t-123.5 33.5q-72 0 -128 -34t-88 -97t-32 -147q0 -86 32 -149.5t88.5 -98t128.5 -34.5q67 0 119 31t81 82t29 111v37
l43 -32h-260v82h282l14 -14v-367h-78v165h30q-23 -58 -63.5 -98t-92.5 -60t-109 -20zM376 767q-42 0 -75.5 18.5t-52.5 52t-19 76.5h78q1 -32 20 -55t49 -23t49 23t20 55h78q0 -43 -19 -76.5t-52.5 -52t-75.5 -18.5z" />
    <glyph glyph-name="uni0122" unicode="&#x122;" horiz-adv-x="761" 
d="M379 -13q-96 0 -171 45.5t-117.5 127.5t-42.5 191q0 108 42 189.5t117.5 127t173.5 45.5q102 0 179 -52t112 -142l-71 -21l-11 2q-30 63 -83.5 96.5t-123.5 33.5q-72 0 -128 -34t-88 -97t-32 -147q0 -86 32 -149.5t88.5 -98t128.5 -34.5q67 0 119 31t81 82t29 111v37
l43 -32h-260v82h282l14 -14v-367h-78v165h30q-23 -58 -63.5 -98t-92.5 -60t-109 -20zM340 -232v52q23 5 36.5 19.5t13.5 33.5q0 16 -5 26l34 18q3 -10 3 -20q0 -16 -8 -23.5t-17.5 -10t-13.5 -2.5q-23 0 -38.5 15t-15.5 37q0 23 15.5 38.5t38.5 15.5q29 0 45.5 -25t16.5 -56
q0 -22 -10.5 -47t-33.5 -45t-61 -26z" />
    <glyph glyph-name="Gdotaccent" unicode="&#x120;" horiz-adv-x="761" 
d="M379 -13q-96 0 -171 45.5t-117.5 127.5t-42.5 191q0 108 42 189.5t117.5 127t173.5 45.5q102 0 179 -52t112 -142l-71 -21l-11 2q-30 63 -83.5 96.5t-123.5 33.5q-72 0 -128 -34t-88 -97t-32 -147q0 -86 32 -149.5t88.5 -98t128.5 -34.5q67 0 119 31t81 82t29 111v37
l43 -32h-260v82h282l14 -14v-367h-78v165h30q-23 -58 -63.5 -98t-92.5 -60t-109 -20zM376 785q-25 0 -42 17t-17 42t17 42.5t42 17.5t42.5 -17.5t17.5 -42.5t-17.5 -42t-42.5 -17z" />
    <glyph glyph-name="H" unicode="H" horiz-adv-x="691" 
d="M527 0v700h85v-700h-85zM78 0v700h85v-700h-85zM122 318v83h455v-83h-455z" />
    <glyph glyph-name="Hbar" unicode="&#x126;" horiz-adv-x="691" 
d="M527 0v700h85v-700h-85zM78 0v700h85v-700h-85zM122 318v83h455v-83h-455zM1 501v82h689v-82h-689z" />
    <glyph glyph-name="I" unicode="I" horiz-adv-x="242" 
d="M78 0v700h85v-700h-85z" />
    <glyph glyph-name="Iacute" unicode="&#xcd;" horiz-adv-x="242" 
d="M78 0v700h85v-700h-85zM84 769l73 145h111v-8l-100 -137h-84z" />
    <glyph glyph-name="Icircumflex" unicode="&#xce;" horiz-adv-x="242" 
d="M78 0v700h85v-700h-85zM-35 769l102 145h109l102 -145h-90l-67 84l-67 -84h-89z" />
    <glyph glyph-name="Idieresis" unicode="&#xcf;" horiz-adv-x="242" 
d="M78 0v700h85v-700h-85zM220 784q-25 0 -42 17t-17 42t17 42.5t42 17.5t42.5 -17.5t17.5 -42.5t-17.5 -42t-42.5 -17zM33 784q-25 0 -42 17t-17 42t17 42.5t42 17.5t42.5 -17.5t17.5 -42.5t-17.5 -42t-42.5 -17z" />
    <glyph glyph-name="Idotaccent" unicode="&#x130;" horiz-adv-x="242" 
d="M78 0v700h85v-700h-85zM121 785q-25 0 -42 17t-17 42t17 42.5t42 17.5t42.5 -17.5t17.5 -42.5t-17.5 -42t-42.5 -17z" />
    <glyph glyph-name="Igrave" unicode="&#xcc;" horiz-adv-x="242" 
d="M78 0v700h85v-700h-85zM154 769h-84l-100 137v8h111z" />
    <glyph glyph-name="Imacron" unicode="&#x12a;" horiz-adv-x="242" 
d="M78 0v700h85v-700h-85zM-35 801v82h313v-82h-313z" />
    <glyph glyph-name="Iogonek" unicode="&#x12e;" horiz-adv-x="242" 
d="M78 0v700h85v-700h-85zM119 -209q-50 0 -80.5 28.5t-30.5 75.5q0 44 27 79.5t81 64.5l48 -39q-38 -20 -59 -43t-21 -46q0 -20 13.5 -33t35.5 -13q14 0 26 4l5 -11v-62q-13 -2 -23.5 -3.5t-21.5 -1.5z" />
    <glyph glyph-name="J" unicode="J" horiz-adv-x="521" 
d="M251 -13q-61 0 -106.5 25t-71 68.5t-25.5 101.5v47h74l11 -5v-42q0 -51 32.5 -81.5t85.5 -30.5q52 0 84.5 31.5t32.5 87.5v511h85v-509q0 -61 -25 -107t-70.5 -71.5t-106.5 -25.5z" />
    <glyph glyph-name="K" unicode="K" horiz-adv-x="606" 
d="M120 176v121l362 403h105v-8zM78 0v700h85v-700h-85zM508 0l-263 360l63 58l298 -410v-8h-98z" />
    <glyph glyph-name="uni0136" unicode="&#x136;" horiz-adv-x="606" 
d="M120 176v121l362 403h105v-8zM78 0v700h85v-700h-85zM508 0l-263 360l63 58l298 -410v-8h-98zM284 -232v52q23 5 36.5 19.5t13.5 33.5q0 16 -5 26l34 18q3 -10 3 -20q0 -16 -8 -23.5t-17.5 -10t-13.5 -2.5q-23 0 -38.5 15t-15.5 37q0 23 15.5 38.5t38.5 15.5
q29 0 45.5 -25t16.5 -56q0 -22 -10.5 -47t-33.5 -45t-61 -26z" />
    <glyph glyph-name="L" unicode="L" horiz-adv-x="534" 
d="M78 0v700h85v-700h-85zM122 0v82h393v-82h-393z" />
    <glyph glyph-name="Lacute" unicode="&#x139;" horiz-adv-x="534" 
d="M78 0v700h85v-700h-85zM122 0v82h393v-82h-393zM83 769l73 145h111v-8l-100 -137h-84z" />
    <glyph glyph-name="Lcaron" unicode="&#x13d;" horiz-adv-x="534" 
d="M78 0v700h85v-700h-85zM122 0v82h393v-82h-393zM219 536l20 184h89l-41 -184h-68z" />
    <glyph glyph-name="uni013B" unicode="&#x13b;" horiz-adv-x="534" 
d="M78 0v700h85v-700h-85zM122 0v82h393v-82h-393zM254 -232v52q23 5 36.5 19.5t13.5 33.5q0 16 -5 26l34 18q3 -10 3 -20q0 -16 -8 -23.5t-17.5 -10t-13.5 -2.5q-23 0 -38.5 15t-15.5 37q0 23 15.5 38.5t38.5 15.5q29 0 45.5 -25t16.5 -56q0 -22 -10.5 -47t-33.5 -45
t-61 -26z" />
    <glyph glyph-name="Ldot" unicode="&#x13f;" horiz-adv-x="534" 
d="M78 0v700h85v-700h-85zM122 0v82h393v-82h-393zM388 314q-25 0 -42 17t-17 42t17 42.5t42 17.5t42.5 -17.5t17.5 -42.5t-17.5 -42t-42.5 -17z" />
    <glyph glyph-name="Lslash" unicode="&#x141;" horiz-adv-x="534" 
d="M78 0v700h85v-700h-85zM122 0v82h393v-82h-393zM1 239v88l338 133v-88z" />
    <glyph glyph-name="M" unicode="M" horiz-adv-x="871" 
d="M394 0l1 21l290 679h81v-21l-290 -679h-82zM78 0v700h85v-700h-85zM395 0l-291 679v21h82l290 -679v-21h-81zM707 0v700h85v-700h-85z" />
    <glyph glyph-name="N" unicode="N" horiz-adv-x="701" 
d="M537 0l-459 676v24h85l459 -676v-24h-85zM78 0v700h85v-700h-85zM537 0v700h85v-700h-85z" />
    <glyph glyph-name="Nacute" unicode="&#x143;" horiz-adv-x="701" 
d="M537 0l-459 676v24h85l459 -676v-24h-85zM78 0v700h85v-700h-85zM537 0v700h85v-700h-85zM325 769l73 145h111v-8l-100 -137h-84z" />
    <glyph glyph-name="Ncaron" unicode="&#x147;" horiz-adv-x="701" 
d="M537 0l-459 676v24h85l459 -676v-24h-85zM78 0v700h85v-700h-85zM537 0v700h85v-700h-85zM206 868h89l67 -84l67 84h90l-102 -145h-109z" />
    <glyph glyph-name="uni0145" unicode="&#x145;" horiz-adv-x="701" 
d="M537 0l-459 676v24h85l459 -676v-24h-85zM78 0v700h85v-700h-85zM537 0v700h85v-700h-85zM316 -232v52q23 5 36.5 19.5t13.5 33.5q0 16 -5 26l34 18q3 -10 3 -20q0 -16 -8 -23.5t-17.5 -10t-13.5 -2.5q-23 0 -38.5 15t-15.5 37q0 23 15.5 38.5t38.5 15.5q29 0 45.5 -25
t16.5 -56q0 -22 -10.5 -47t-33.5 -45t-61 -26z" />
    <glyph glyph-name="Ntilde" unicode="&#xd1;" horiz-adv-x="701" 
d="M537 0l-459 676v24h85l459 -676v-24h-85zM78 0v700h85v-700h-85zM537 0v700h85v-700h-85zM431 777q-22 0 -39 8t-32 19t-29.5 19t-29.5 8q-17 0 -27.5 -15t-10.5 -38h-71q0 57 28.5 93t74.5 36q21 0 38.5 -8t32.5 -19t29 -19t29 -8q18 0 28 15t10 38h71q0 -57 -28 -93
t-74 -36z" />
    <glyph glyph-name="Eng" unicode="&#x14a;" horiz-adv-x="701" 
d="M412 -200v70l5 11h23q52 0 74.5 22t22.5 75v112h85v-118q0 -79 -46 -125.5t-118 -46.5h-46zM537 0l-459 676v24h85l459 -676v-24h-85zM78 0v700h85v-700h-85zM537 0v700h85v-700h-85z" />
    <glyph glyph-name="O" unicode="O" horiz-adv-x="760" 
d="M380 -13q-96 0 -171.5 45.5t-118 127.5t-42.5 190t42.5 190t118 127.5t171.5 45.5q97 0 172 -45.5t117.5 -127.5t42.5 -190t-42.5 -190t-117.5 -127.5t-172 -45.5zM380 70q70 0 125.5 34.5t87.5 97.5t32 148q0 86 -32 149t-87.5 97t-125.5 34t-125 -34t-87.5 -97
t-32.5 -149q0 -85 32.5 -148t87.5 -97.5t125 -34.5z" />
    <glyph glyph-name="Oacute" unicode="&#xd3;" horiz-adv-x="760" 
d="M380 -13q-96 0 -171.5 45.5t-118 127.5t-42.5 190t42.5 190t118 127.5t171.5 45.5q97 0 172 -45.5t117.5 -127.5t42.5 -190t-42.5 -190t-117.5 -127.5t-172 -45.5zM380 70q70 0 125.5 34.5t87.5 97.5t32 148q0 86 -32 149t-87.5 97t-125.5 34t-125 -34t-87.5 -97
t-32.5 -149q0 -85 32.5 -148t87.5 -97.5t125 -34.5zM342 769l73 145h111v-8l-100 -137h-84z" />
    <glyph glyph-name="Ocircumflex" unicode="&#xd4;" horiz-adv-x="760" 
d="M380 -13q-96 0 -171.5 45.5t-118 127.5t-42.5 190t42.5 190t118 127.5t171.5 45.5q97 0 172 -45.5t117.5 -127.5t42.5 -190t-42.5 -190t-117.5 -127.5t-172 -45.5zM380 70q70 0 125.5 34.5t87.5 97.5t32 148q0 86 -32 149t-87.5 97t-125.5 34t-125 -34t-87.5 -97
t-32.5 -149q0 -85 32.5 -148t87.5 -97.5t125 -34.5zM223 769l102 145h109l102 -145h-90l-67 84l-67 -84h-89z" />
    <glyph glyph-name="Odieresis" unicode="&#xd6;" horiz-adv-x="760" 
d="M380 -13q-96 0 -171.5 45.5t-118 127.5t-42.5 190t42.5 190t118 127.5t171.5 45.5q97 0 172 -45.5t117.5 -127.5t42.5 -190t-42.5 -190t-117.5 -127.5t-172 -45.5zM380 70q70 0 125.5 34.5t87.5 97.5t32 148q0 86 -32 149t-87.5 97t-125.5 34t-125 -34t-87.5 -97
t-32.5 -149q0 -85 32.5 -148t87.5 -97.5t125 -34.5zM479 784q-25 0 -42 17t-17 42t17 42.5t42 17.5t42.5 -17.5t17.5 -42.5t-17.5 -42t-42.5 -17zM292 784q-25 0 -42 17t-17 42t17 42.5t42 17.5t42.5 -17.5t17.5 -42.5t-17.5 -42t-42.5 -17z" />
    <glyph glyph-name="Ograve" unicode="&#xd2;" horiz-adv-x="760" 
d="M380 -13q-96 0 -171.5 45.5t-118 127.5t-42.5 190t42.5 190t118 127.5t171.5 45.5q97 0 172 -45.5t117.5 -127.5t42.5 -190t-42.5 -190t-117.5 -127.5t-172 -45.5zM380 70q70 0 125.5 34.5t87.5 97.5t32 148q0 86 -32 149t-87.5 97t-125.5 34t-125 -34t-87.5 -97
t-32.5 -149q0 -85 32.5 -148t87.5 -97.5t125 -34.5zM413 769h-84l-100 137v8h111z" />
    <glyph glyph-name="Ohungarumlaut" unicode="&#x150;" horiz-adv-x="760" 
d="M380 -13q-96 0 -171.5 45.5t-118 127.5t-42.5 190t42.5 190t118 127.5t171.5 45.5q97 0 172 -45.5t117.5 -127.5t42.5 -190t-42.5 -190t-117.5 -127.5t-172 -45.5zM380 70q70 0 125.5 34.5t87.5 97.5t32 148q0 86 -32 149t-87.5 97t-125.5 34t-125 -34t-87.5 -97
t-32.5 -149q0 -85 32.5 -148t87.5 -97.5t125 -34.5zM408 769l58 145h108v-8l-86 -137h-80zM265 769l58 145h108v-8l-85 -137h-81z" />
    <glyph glyph-name="Omacron" unicode="&#x14c;" horiz-adv-x="760" 
d="M380 -13q-96 0 -171.5 45.5t-118 127.5t-42.5 190t42.5 190t118 127.5t171.5 45.5q97 0 172 -45.5t117.5 -127.5t42.5 -190t-42.5 -190t-117.5 -127.5t-172 -45.5zM380 70q70 0 125.5 34.5t87.5 97.5t32 148q0 86 -32 149t-87.5 97t-125.5 34t-125 -34t-87.5 -97
t-32.5 -149q0 -85 32.5 -148t87.5 -97.5t125 -34.5zM224 801v82h313v-82h-313z" />
    <glyph glyph-name="Oslash" unicode="&#xd8;" horiz-adv-x="760" 
d="M380 -13q-96 0 -171.5 45.5t-118 127.5t-42.5 190t42.5 190t118 127.5t171.5 45.5q97 0 172 -45.5t117.5 -127.5t42.5 -190t-42.5 -190t-117.5 -127.5t-172 -45.5zM380 70q70 0 125.5 34.5t87.5 97.5t32 148q0 86 -32 149t-87.5 97t-125.5 34t-125 -34t-87.5 -97
t-32.5 -149q0 -85 32.5 -148t87.5 -97.5t125 -34.5zM149 -98l-69 40l528 856l70 -40z" />
    <glyph glyph-name="Otilde" unicode="&#xd5;" horiz-adv-x="760" 
d="M380 -13q-96 0 -171.5 45.5t-118 127.5t-42.5 190t42.5 190t118 127.5t171.5 45.5q97 0 172 -45.5t117.5 -127.5t42.5 -190t-42.5 -190t-117.5 -127.5t-172 -45.5zM380 70q70 0 125.5 34.5t87.5 97.5t32 148q0 86 -32 149t-87.5 97t-125.5 34t-125 -34t-87.5 -97
t-32.5 -149q0 -85 32.5 -148t87.5 -97.5t125 -34.5zM448 777q-22 0 -39 8t-32 19t-29.5 19t-29.5 8q-17 0 -27.5 -15t-10.5 -38h-71q0 57 28.5 93t74.5 36q21 0 38.5 -8t32.5 -19t29 -19t29 -8q18 0 28 15t10 38h71q0 -57 -28 -93t-74 -36z" />
    <glyph glyph-name="OE" unicode="&#x152;" horiz-adv-x="1121" 
d="M380 -13q-96 0 -171.5 45.5t-118 127.5t-42.5 190t42.5 190t118 127.5t171.5 45.5q97 0 172 -45.5t117.5 -127.5t42.5 -190t-42.5 -190t-117.5 -127.5t-172 -45.5zM380 70q70 0 125.5 34.5t87.5 97.5t32 148q0 86 -32 149t-87.5 97t-125.5 34t-125 -34t-87.5 -97
t-32.5 -149q0 -85 32.5 -148t87.5 -97.5t125 -34.5zM625 0v700h85v-700h-85zM669 0v82h403v-82h-403zM669 313v83h381v-83h-381zM669 618v82h403v-82h-403z" />
    <glyph glyph-name="P" unicode="P" horiz-adv-x="595" 
d="M458 491q0 60 -34.5 93.5t-96.5 33.5h-202v82h205q99 0 158 -56.5t59 -152.5h-89zM78 0v700h85v-700h-85zM125 283v81h202q62 0 96.5 34t34.5 93h89q0 -95 -59 -151.5t-158 -56.5h-205z" />
    <glyph glyph-name="Thorn" unicode="&#xde;" horiz-adv-x="595" 
d="M458 350q0 59 -34.5 93t-96.5 34h-202v82h205q99 0 158 -56.5t59 -152.5h-89zM78 0v700h85v-700h-85zM125 141v82h202q62 0 96.5 34t34.5 93h89q0 -95 -59 -152t-158 -57h-205z" />
    <glyph glyph-name="Q" unicode="Q" horiz-adv-x="760" 
d="M621 0l-238 270l61 58l281 -320v-8h-104zM380 -13q-96 0 -171.5 45.5t-118 127.5t-42.5 190t42.5 190t118 127.5t171.5 45.5q97 0 172 -45.5t117.5 -127.5t42.5 -190t-42.5 -190t-117.5 -127.5t-172 -45.5zM380 70q70 0 125.5 34.5t87.5 97.5t32 148q0 86 -32 149
t-87.5 97t-125.5 34t-125 -34t-87.5 -97t-32.5 -149q0 -85 32.5 -148t87.5 -97.5t125 -34.5z" />
    <glyph glyph-name="R" unicode="R" horiz-adv-x="600" 
d="M78 0v700h85v-700h-85zM125 283v82h212q62 0 96.5 33.5t34.5 92.5h90q0 -95 -59.5 -151.5t-158.5 -56.5h-215zM468 491q0 59 -34.5 93t-96.5 34h-212v82h215q99 0 158.5 -56.5t59.5 -152.5h-90zM469 0l-169 304l78 32l184 -328v-8h-93z" />
    <glyph glyph-name="Racute" unicode="&#x154;" horiz-adv-x="600" 
d="M78 0v700h85v-700h-85zM125 283v82h212q62 0 96.5 33.5t34.5 92.5h90q0 -95 -59.5 -151.5t-158.5 -56.5h-215zM468 491q0 59 -34.5 93t-96.5 34h-212v82h215q99 0 158.5 -56.5t59.5 -152.5h-90zM469 0l-169 304l78 32l184 -328v-8h-93zM246 769l73 145h111v-8l-100 -137
h-84z" />
    <glyph glyph-name="Rcaron" unicode="&#x158;" horiz-adv-x="600" 
d="M78 0v700h85v-700h-85zM125 283v82h212q62 0 96.5 33.5t34.5 92.5h90q0 -95 -59.5 -151.5t-158.5 -56.5h-215zM468 491q0 59 -34.5 93t-96.5 34h-212v82h215q99 0 158.5 -56.5t59.5 -152.5h-90zM469 0l-169 304l78 32l184 -328v-8h-93zM126 868h89l67 -84l67 84h90
l-102 -145h-109z" />
    <glyph glyph-name="uni0156" unicode="&#x156;" horiz-adv-x="600" 
d="M78 0v700h85v-700h-85zM125 283v82h212q62 0 96.5 33.5t34.5 92.5h90q0 -95 -59.5 -151.5t-158.5 -56.5h-215zM468 491q0 59 -34.5 93t-96.5 34h-212v82h215q99 0 158.5 -56.5t59.5 -152.5h-90zM469 0l-169 304l78 32l184 -328v-8h-93zM271 -232v52q23 5 36.5 19.5
t13.5 33.5q0 16 -5 26l34 18q3 -10 3 -20q0 -16 -8 -23.5t-17.5 -10t-13.5 -2.5q-23 0 -38.5 15t-15.5 37q0 23 15.5 38.5t38.5 15.5q29 0 45.5 -25t16.5 -56q0 -22 -10.5 -47t-33.5 -45t-61 -26z" />
    <glyph glyph-name="S" unicode="S" horiz-adv-x="614" 
d="M317 -13q-70 0 -127.5 26t-96 73t-51.5 109l79 19l11 -2q11 -40 38 -72.5t65.5 -51.5t81.5 -19q47 0 82.5 15t56 42t20.5 62q0 47 -26.5 72t-73.5 38l-135 37q-83 23 -126 73t-43 115q0 56 29 98.5t80.5 67t119.5 24.5q65 0 118.5 -24.5t88 -68.5t45.5 -104l-77 -17
l-11 2q-13 60 -57.5 95t-107.5 35q-62 0 -100 -29.5t-38 -78.5q0 -39 27 -65t78 -40l134 -37q79 -22 122 -70t43 -118q0 -62 -31 -108t-87 -72t-131 -26z" />
    <glyph glyph-name="Sacute" unicode="&#x15a;" horiz-adv-x="614" 
d="M317 -13q-70 0 -127.5 26t-96 73t-51.5 109l79 19l11 -2q11 -40 38 -72.5t65.5 -51.5t81.5 -19q47 0 82.5 15t56 42t20.5 62q0 47 -26.5 72t-73.5 38l-135 37q-83 23 -126 73t-43 115q0 56 29 98.5t80.5 67t119.5 24.5q65 0 118.5 -24.5t88 -68.5t45.5 -104l-77 -17
l-11 2q-13 60 -57.5 95t-107.5 35q-62 0 -100 -29.5t-38 -78.5q0 -39 27 -65t78 -40l134 -37q79 -22 122 -70t43 -118q0 -62 -31 -108t-87 -72t-131 -26zM275 769l73 145h111v-8l-100 -137h-84z" />
    <glyph glyph-name="Scaron" unicode="&#x160;" horiz-adv-x="614" 
d="M317 -13q-70 0 -127.5 26t-96 73t-51.5 109l79 19l11 -2q11 -40 38 -72.5t65.5 -51.5t81.5 -19q47 0 82.5 15t56 42t20.5 62q0 47 -26.5 72t-73.5 38l-135 37q-83 23 -126 73t-43 115q0 56 29 98.5t80.5 67t119.5 24.5q65 0 118.5 -24.5t88 -68.5t45.5 -104l-77 -17
l-11 2q-13 60 -57.5 95t-107.5 35q-62 0 -100 -29.5t-38 -78.5q0 -39 27 -65t78 -40l134 -37q79 -22 122 -70t43 -118q0 -62 -31 -108t-87 -72t-131 -26zM156 868h89l67 -84l67 84h90l-102 -145h-109z" />
    <glyph glyph-name="Scedilla" unicode="&#x15e;" horiz-adv-x="614" 
d="M317 -13q-70 0 -127.5 26t-96 73t-51.5 109l79 19l11 -2q11 -40 38 -72.5t65.5 -51.5t81.5 -19q47 0 82.5 15t56 42t20.5 62q0 47 -26.5 72t-73.5 38l-135 37q-83 23 -126 73t-43 115q0 56 29 98.5t80.5 67t119.5 24.5q65 0 118.5 -24.5t88 -68.5t45.5 -104l-77 -17
l-11 2q-13 60 -57.5 95t-107.5 35q-62 0 -100 -29.5t-38 -78.5q0 -39 27 -65t78 -40l134 -37q79 -22 122 -70t43 -118q0 -62 -31 -108t-87 -72t-131 -26zM308 -209q-13 0 -27.5 3.5t-31.5 14.5l18 52l9 2q8 -4 15.5 -6t13.5 -2q15 0 23.5 8t8.5 19q0 13 -8.5 21t-23.5 8
t-24 -8l-31 42l47 68h75l-65 -88l-9 40q5 1 10 1.5t10 0.5q36 0 60.5 -24.5t24.5 -60.5q0 -40 -28 -65.5t-67 -25.5z" />
    <glyph glyph-name="uni0218" unicode="&#x218;" horiz-adv-x="614" 
d="M317 -13q-70 0 -127.5 26t-96 73t-51.5 109l79 19l11 -2q11 -40 38 -72.5t65.5 -51.5t81.5 -19q47 0 82.5 15t56 42t20.5 62q0 47 -26.5 72t-73.5 38l-135 37q-83 23 -126 73t-43 115q0 56 29 98.5t80.5 67t119.5 24.5q65 0 118.5 -24.5t88 -68.5t45.5 -104l-77 -17
l-11 2q-13 60 -57.5 95t-107.5 35q-62 0 -100 -29.5t-38 -78.5q0 -39 27 -65t78 -40l134 -37q79 -22 122 -70t43 -118q0 -62 -31 -108t-87 -72t-131 -26zM280 -232v52q23 5 36.5 19.5t13.5 33.5q0 16 -5 26l34 18q3 -10 3 -20q0 -16 -8 -23.5t-17.5 -10t-13.5 -2.5
q-23 0 -38.5 15t-15.5 37q0 23 15.5 38.5t38.5 15.5q29 0 45.5 -25t16.5 -56q0 -22 -10.5 -47t-33.5 -45t-61 -26z" />
    <glyph glyph-name="uni1E9E" unicode="&#x1e9e;" horiz-adv-x="690" 
d="M437 -13q-61 0 -111 27.5t-79.5 78t-30.5 119.5l75 17l11 -2q0 -50 17.5 -85t48 -53.5t67.5 -18.5q34 0 62 16.5t45 47t17 73.5q0 68 -43.5 103.5t-110.5 35.5h-104v73l229 246l27 -47h-304q-42 0 -68.5 -26t-26.5 -68v-524h-85v527q0 51 22 90t61 61t90 22h350v-78
l-223 -238l-26 39h58q78 0 132 -29t82 -79.5t28 -114.5q0 -62 -28 -110t-75.5 -75.5t-106.5 -27.5z" />
    <glyph glyph-name="T" unicode="T" horiz-adv-x="567" 
d="M241 0v700h86v-700h-86zM24 618v82h519v-82h-519z" />
    <glyph glyph-name="Tcaron" unicode="&#x164;" horiz-adv-x="567" 
d="M241 0v700h86v-700h-86zM24 618v82h519v-82h-519zM127 868h89l67 -84l67 84h90l-102 -145h-109z" />
    <glyph glyph-name="uni021A" unicode="&#x21a;" horiz-adv-x="567" 
d="M241 0v700h86v-700h-86zM24 618v82h519v-82h-519zM237 -232v52q23 5 36.5 19.5t13.5 33.5q0 16 -5 26l34 18q3 -10 3 -20q0 -16 -8 -23.5t-17.5 -10t-13.5 -2.5q-23 0 -38.5 15t-15.5 37q0 23 15.5 38.5t38.5 15.5q29 0 45.5 -25t16.5 -56q0 -22 -10.5 -47t-33.5 -45
t-61 -26z" />
    <glyph glyph-name="U" unicode="U" horiz-adv-x="651" 
d="M326 -13q-80 0 -138 32.5t-89 93t-31 144.5v443h85v-445q0 -89 44.5 -137t128.5 -48q83 0 127.5 48t44.5 137v445h85v-443q0 -84 -31 -144.5t-88.5 -93t-137.5 -32.5z" />
    <glyph glyph-name="Uacute" unicode="&#xda;" horiz-adv-x="651" 
d="M326 -13q-80 0 -138 32.5t-89 93t-31 144.5v443h85v-445q0 -89 44.5 -137t128.5 -48q83 0 127.5 48t44.5 137v445h85v-443q0 -84 -31 -144.5t-88.5 -93t-137.5 -32.5zM288 769l73 145h111v-8l-100 -137h-84z" />
    <glyph glyph-name="Ubreve" unicode="&#x16c;" horiz-adv-x="651" 
d="M326 -13q-80 0 -138 32.5t-89 93t-31 144.5v443h85v-445q0 -89 44.5 -137t128.5 -48q83 0 127.5 48t44.5 137v445h85v-443q0 -84 -31 -144.5t-88.5 -93t-137.5 -32.5zM325 767q-42 0 -75.5 18.5t-52.5 52t-19 76.5h78q1 -32 20 -55t49 -23t49 23t20 55h78
q0 -43 -19 -76.5t-52.5 -52t-75.5 -18.5z" />
    <glyph glyph-name="Ucircumflex" unicode="&#xdb;" horiz-adv-x="651" 
d="M326 -13q-80 0 -138 32.5t-89 93t-31 144.5v443h85v-445q0 -89 44.5 -137t128.5 -48q83 0 127.5 48t44.5 137v445h85v-443q0 -84 -31 -144.5t-88.5 -93t-137.5 -32.5zM169 769l102 145h109l102 -145h-90l-67 84l-67 -84h-89z" />
    <glyph glyph-name="Udieresis" unicode="&#xdc;" horiz-adv-x="651" 
d="M326 -13q-80 0 -138 32.5t-89 93t-31 144.5v443h85v-445q0 -89 44.5 -137t128.5 -48q83 0 127.5 48t44.5 137v445h85v-443q0 -84 -31 -144.5t-88.5 -93t-137.5 -32.5zM425 784q-25 0 -42 17t-17 42t17 42.5t42 17.5t42.5 -17.5t17.5 -42.5t-17.5 -42t-42.5 -17zM237 784
q-25 0 -42 17t-17 42t17 42.5t42 17.5t42.5 -17.5t17.5 -42.5t-17.5 -42t-42.5 -17z" />
    <glyph glyph-name="Ugrave" unicode="&#xd9;" horiz-adv-x="651" 
d="M326 -13q-80 0 -138 32.5t-89 93t-31 144.5v443h85v-445q0 -89 44.5 -137t128.5 -48q83 0 127.5 48t44.5 137v445h85v-443q0 -84 -31 -144.5t-88.5 -93t-137.5 -32.5zM359 769h-84l-100 137v8h111z" />
    <glyph glyph-name="Uhungarumlaut" unicode="&#x170;" horiz-adv-x="651" 
d="M326 -13q-80 0 -138 32.5t-89 93t-31 144.5v443h85v-445q0 -89 44.5 -137t128.5 -48q83 0 127.5 48t44.5 137v445h85v-443q0 -84 -31 -144.5t-88.5 -93t-137.5 -32.5zM354 769l58 145h108v-8l-86 -137h-80zM211 769l58 145h108v-8l-85 -137h-81z" />
    <glyph glyph-name="Umacron" unicode="&#x16a;" horiz-adv-x="651" 
d="M326 -13q-80 0 -138 32.5t-89 93t-31 144.5v443h85v-445q0 -89 44.5 -137t128.5 -48q83 0 127.5 48t44.5 137v445h85v-443q0 -84 -31 -144.5t-88.5 -93t-137.5 -32.5zM169 801v82h313v-82h-313z" />
    <glyph glyph-name="Uogonek" unicode="&#x172;" horiz-adv-x="651" 
d="M326 -13q-80 0 -138 32.5t-89 93t-31 144.5v443h85v-445q0 -89 44.5 -137t128.5 -48q83 0 127.5 48t44.5 137v445h85v-443q0 -84 -31 -144.5t-88.5 -93t-137.5 -32.5zM372 -209q-50 0 -80.5 28.5t-30.5 75.5q0 44 27 79.5t81 64.5l48 -39q-38 -20 -59 -43t-21 -46
q0 -20 13.5 -33t35.5 -13q14 0 26 4l5 -11v-62q-13 -2 -23.5 -3.5t-21.5 -1.5z" />
    <glyph glyph-name="Uring" unicode="&#x16e;" horiz-adv-x="651" 
d="M326 -13q-80 0 -138 32.5t-89 93t-31 144.5v443h85v-445q0 -89 44.5 -137t128.5 -48q83 0 127.5 48t44.5 137v445h85v-443q0 -84 -31 -144.5t-88.5 -93t-137.5 -32.5zM326 687q-34 0 -62 15.5t-44 43t-16 60.5q0 34 16 60.5t44 42t62 15.5q35 0 62 -15.5t43 -42t16 -60.5
q0 -33 -16 -60.5t-43 -43t-62 -15.5zM326 753q23 0 38 15.5t15 37.5t-15 37.5t-38 15.5t-38.5 -15.5t-15.5 -37.5t15.5 -37.5t38.5 -15.5z" />
    <glyph glyph-name="V" unicode="V" horiz-adv-x="670" 
d="M293 0l7 21l258 679h91v-8l-271 -692h-85zM293 0l-271 692v8h91l258 -679l7 -21h-85z" />
    <glyph glyph-name="W" unicode="W" horiz-adv-x="979" 
d="M667 0l-221 700h87l207 -679l9 -21h-82zM667 0l5 21l191 679h89v-8l-203 -692h-82zM229 0l-202 692v8h88l192 -679l4 -21h-82zM229 0l9 21l208 679h87l-222 -700h-82z" />
    <glyph glyph-name="Wacute" unicode="&#x1e82;" horiz-adv-x="979" 
d="M667 0l-221 700h87l207 -679l9 -21h-82zM667 0l5 21l191 679h89v-8l-203 -692h-82zM229 0l-202 692v8h88l192 -679l4 -21h-82zM229 0l9 21l208 679h87l-222 -700h-82zM436 769l73 145h111v-8l-100 -137h-84z" />
    <glyph glyph-name="Wcircumflex" unicode="&#x174;" horiz-adv-x="979" 
d="M667 0l-221 700h87l207 -679l9 -21h-82zM667 0l5 21l191 679h89v-8l-203 -692h-82zM229 0l-202 692v8h88l192 -679l4 -21h-82zM229 0l9 21l208 679h87l-222 -700h-82zM333 769l102 145h109l102 -145h-90l-67 84l-67 -84h-89z" />
    <glyph glyph-name="Wdieresis" unicode="&#x1e84;" horiz-adv-x="979" 
d="M667 0l-221 700h87l207 -679l9 -21h-82zM667 0l5 21l191 679h89v-8l-203 -692h-82zM229 0l-202 692v8h88l192 -679l4 -21h-82zM229 0l9 21l208 679h87l-222 -700h-82zM589 784q-25 0 -42 17t-17 42t17 42.5t42 17.5t42.5 -17.5t17.5 -42.5t-17.5 -42t-42.5 -17zM401 784
q-25 0 -42 17t-17 42t17 42.5t42 17.5t42.5 -17.5t17.5 -42.5t-17.5 -42t-42.5 -17z" />
    <glyph glyph-name="Wgrave" unicode="&#x1e80;" horiz-adv-x="979" 
d="M667 0l-221 700h87l207 -679l9 -21h-82zM667 0l5 21l191 679h89v-8l-203 -692h-82zM229 0l-202 692v8h88l192 -679l4 -21h-82zM229 0l9 21l208 679h87l-222 -700h-82zM514 769h-84l-100 137v8h111z" />
    <glyph glyph-name="X" unicode="X" horiz-adv-x="550" 
d="M446 0l-429 692v8h98l429 -692v-8h-98zM7 0v8l234 379l48 -81l-187 -306h-95zM300 307l-47 80l186 313h94v-8z" />
    <glyph glyph-name="Y" unicode="Y" horiz-adv-x="556" 
d="M236 0v273l-229 419v8h94l201 -381h-45l200 381h93v-8l-229 -419v-273h-85z" />
    <glyph glyph-name="Yacute" unicode="&#xdd;" horiz-adv-x="556" 
d="M236 0v273l-229 419v8h94l201 -381h-45l200 381h93v-8l-229 -419v-273h-85zM246 769l73 145h111v-8l-100 -137h-84z" />
    <glyph glyph-name="Ycircumflex" unicode="&#x176;" horiz-adv-x="556" 
d="M236 0v273l-229 419v8h94l201 -381h-45l200 381h93v-8l-229 -419v-273h-85zM122 769l102 145h109l102 -145h-90l-67 84l-67 -84h-89z" />
    <glyph glyph-name="Ydieresis" unicode="&#x178;" horiz-adv-x="556" 
d="M236 0v273l-229 419v8h94l201 -381h-45l200 381h93v-8l-229 -419v-273h-85zM378 784q-25 0 -42 17t-17 42t17 42.5t42 17.5t42.5 -17.5t17.5 -42.5t-17.5 -42t-42.5 -17zM190 784q-25 0 -42 17t-17 42t17 42.5t42 17.5t42.5 -17.5t17.5 -42.5t-17.5 -42t-42.5 -17z" />
    <glyph glyph-name="Ygrave" unicode="&#x1ef2;" horiz-adv-x="556" 
d="M236 0v273l-229 419v8h94l201 -381h-45l200 381h93v-8l-229 -419v-273h-85zM323 769h-84l-100 137v8h111z" />
    <glyph glyph-name="Z" unicode="Z" horiz-adv-x="570" 
d="M36 0v78l422 587l15 -47h-431v82h488v-78l-423 -587l-16 47h444v-82h-499z" />
    <glyph glyph-name="Zacute" unicode="&#x179;" horiz-adv-x="570" 
d="M36 0v78l422 587l15 -47h-431v82h488v-78l-423 -587l-16 47h444v-82h-499zM248 769l73 145h111v-8l-100 -137h-84z" />
    <glyph glyph-name="Zcaron" unicode="&#x17d;" horiz-adv-x="570" 
d="M36 0v78l422 587l15 -47h-431v82h488v-78l-423 -587l-16 47h444v-82h-499zM128 868h89l67 -84l67 84h90l-102 -145h-109z" />
    <glyph glyph-name="Zdotaccent" unicode="&#x17b;" horiz-adv-x="570" 
d="M36 0v78l422 587l15 -47h-431v82h488v-78l-423 -587l-16 47h444v-82h-499zM285 785q-25 0 -42 17t-17 42t17 42.5t42 17.5t42.5 -17.5t17.5 -42.5t-17.5 -42t-42.5 -17z" />
    <glyph glyph-name="a" unicode="a" horiz-adv-x="545" 
d="M226 -13q-52 0 -92.5 20t-63.5 55.5t-23 81.5q0 66 47.5 107t131.5 48l193 14v-76l-176 -14q-55 -4 -81.5 -23.5t-26.5 -54.5q0 -33 28 -55t72 -22q45 0 82 21t58.5 56t21.5 78v81q0 57 -35.5 94t-94.5 37q-46 0 -79 -22.5t-45 -62.5h-11l-74 24q22 67 77 104t133 37
q102 0 157.5 -61t55.5 -172v-282h-80v146l30 -16q-12 -41 -42.5 -73.5t-72 -51t-90.5 -18.5z" />
    <glyph glyph-name="aacute" unicode="&#xe1;" horiz-adv-x="545" 
d="M226 -13q-52 0 -92.5 20t-63.5 55.5t-23 81.5q0 66 47.5 107t131.5 48l193 14v-76l-176 -14q-55 -4 -81.5 -23.5t-26.5 -54.5q0 -33 28 -55t72 -22q45 0 82 21t58.5 56t21.5 78v81q0 57 -35.5 94t-94.5 37q-46 0 -79 -22.5t-45 -62.5h-11l-74 24q22 67 77 104t133 37
q102 0 157.5 -61t55.5 -172v-282h-80v146l30 -16q-12 -41 -42.5 -73.5t-72 -51t-90.5 -18.5zM218 579l73 145h111v-8l-100 -137h-84z" />
    <glyph glyph-name="abreve" unicode="&#x103;" horiz-adv-x="545" 
d="M226 -13q-52 0 -92.5 20t-63.5 55.5t-23 81.5q0 66 47.5 107t131.5 48l193 14v-76l-176 -14q-55 -4 -81.5 -23.5t-26.5 -54.5q0 -33 28 -55t72 -22q45 0 82 21t58.5 56t21.5 78v81q0 57 -35.5 94t-94.5 37q-46 0 -79 -22.5t-45 -62.5h-11l-74 24q22 67 77 104t133 37
q102 0 157.5 -61t55.5 -172v-282h-80v146l30 -16q-12 -41 -42.5 -73.5t-72 -51t-90.5 -18.5zM277 577q-42 0 -75.5 18.5t-52.5 52t-19 76.5h78q1 -32 20 -55t49 -23t49 23t20 55h78q0 -43 -19 -76.5t-52.5 -52t-75.5 -18.5z" />
    <glyph glyph-name="acircumflex" unicode="&#xe2;" horiz-adv-x="545" 
d="M226 -13q-52 0 -92.5 20t-63.5 55.5t-23 81.5q0 66 47.5 107t131.5 48l193 14v-76l-176 -14q-55 -4 -81.5 -23.5t-26.5 -54.5q0 -33 28 -55t72 -22q45 0 82 21t58.5 56t21.5 78v81q0 57 -35.5 94t-94.5 37q-46 0 -79 -22.5t-45 -62.5h-11l-74 24q22 67 77 104t133 37
q102 0 157.5 -61t55.5 -172v-282h-80v146l30 -16q-12 -41 -42.5 -73.5t-72 -51t-90.5 -18.5zM120 579l102 145h109l102 -145h-90l-67 84l-67 -84h-89z" />
    <glyph glyph-name="adieresis" unicode="&#xe4;" horiz-adv-x="545" 
d="M226 -13q-52 0 -92.5 20t-63.5 55.5t-23 81.5q0 66 47.5 107t131.5 48l193 14v-76l-176 -14q-55 -4 -81.5 -23.5t-26.5 -54.5q0 -33 28 -55t72 -22q45 0 82 21t58.5 56t21.5 78v81q0 57 -35.5 94t-94.5 37q-46 0 -79 -22.5t-45 -62.5h-11l-74 24q22 67 77 104t133 37
q102 0 157.5 -61t55.5 -172v-282h-80v146l30 -16q-12 -41 -42.5 -73.5t-72 -51t-90.5 -18.5zM371 594q-25 0 -42 17t-17 42t17 42.5t42 17.5t42.5 -17.5t17.5 -42.5t-17.5 -42t-42.5 -17zM184 594q-25 0 -42 17t-17 42t17 42.5t42 17.5t42.5 -17.5t17.5 -42.5t-17.5 -42
t-42.5 -17z" />
    <glyph glyph-name="agrave" unicode="&#xe0;" horiz-adv-x="545" 
d="M226 -13q-52 0 -92.5 20t-63.5 55.5t-23 81.5q0 66 47.5 107t131.5 48l193 14v-76l-176 -14q-55 -4 -81.5 -23.5t-26.5 -54.5q0 -33 28 -55t72 -22q45 0 82 21t58.5 56t21.5 78v81q0 57 -35.5 94t-94.5 37q-46 0 -79 -22.5t-45 -62.5h-11l-74 24q22 67 77 104t133 37
q102 0 157.5 -61t55.5 -172v-282h-80v146l30 -16q-12 -41 -42.5 -73.5t-72 -51t-90.5 -18.5zM330 579h-84l-100 137v8h111z" />
    <glyph glyph-name="amacron" unicode="&#x101;" horiz-adv-x="545" 
d="M226 -13q-52 0 -92.5 20t-63.5 55.5t-23 81.5q0 66 47.5 107t131.5 48l193 14v-76l-176 -14q-55 -4 -81.5 -23.5t-26.5 -54.5q0 -33 28 -55t72 -22q45 0 82 21t58.5 56t21.5 78v81q0 57 -35.5 94t-94.5 37q-46 0 -79 -22.5t-45 -62.5h-11l-74 24q22 67 77 104t133 37
q102 0 157.5 -61t55.5 -172v-282h-80v146l30 -16q-12 -41 -42.5 -73.5t-72 -51t-90.5 -18.5zM121 611v82h313v-82h-313z" />
    <glyph glyph-name="aogonek" unicode="&#x105;" horiz-adv-x="545" 
d="M226 -13q-52 0 -92.5 20t-63.5 55.5t-23 81.5q0 66 47.5 107t131.5 48l193 14v-76l-176 -14q-55 -4 -81.5 -23.5t-26.5 -54.5q0 -33 28 -55t72 -22q45 0 82 21t58.5 56t21.5 78v81q0 57 -35.5 94t-94.5 37q-46 0 -79 -22.5t-45 -62.5h-11l-74 24q22 67 77 104t133 37
q102 0 157.5 -61t55.5 -172v-282h-80v146l30 -16q-12 -41 -42.5 -73.5t-72 -51t-90.5 -18.5zM437 -209q-50 0 -80.5 28.5t-30.5 75.5q0 44 27 79.5t81 64.5l48 -39q-38 -20 -59 -43t-21 -46q0 -20 13.5 -33t35.5 -13q14 0 26 4l5 -11v-62q-13 -2 -23.5 -3.5t-21.5 -1.5z" />
    <glyph glyph-name="aring" unicode="&#xe5;" horiz-adv-x="545" 
d="M226 -13q-52 0 -92.5 20t-63.5 55.5t-23 81.5q0 66 47.5 107t131.5 48l193 14v-76l-176 -14q-55 -4 -81.5 -23.5t-26.5 -54.5q0 -33 28 -55t72 -22q45 0 82 21t58.5 56t21.5 78v81q0 57 -35.5 94t-94.5 37q-46 0 -79 -22.5t-45 -62.5h-11l-74 24q22 67 77 104t133 37
q102 0 157.5 -61t55.5 -172v-282h-80v146l30 -16q-12 -41 -42.5 -73.5t-72 -51t-90.5 -18.5zM278 542q-34 0 -62 15.5t-44 43t-16 60.5q0 34 16 60.5t44 42t62 15.5q35 0 62 -15.5t43 -42t16 -60.5q0 -33 -16 -60.5t-43 -43t-62 -15.5zM278 608q23 0 38 15.5t15 37.5
t-15 37.5t-38 15.5t-38.5 -15.5t-15.5 -37.5t15.5 -37.5t38.5 -15.5z" />
    <glyph glyph-name="atilde" unicode="&#xe3;" horiz-adv-x="545" 
d="M226 -13q-52 0 -92.5 20t-63.5 55.5t-23 81.5q0 66 47.5 107t131.5 48l193 14v-76l-176 -14q-55 -4 -81.5 -23.5t-26.5 -54.5q0 -33 28 -55t72 -22q45 0 82 21t58.5 56t21.5 78v81q0 57 -35.5 94t-94.5 37q-46 0 -79 -22.5t-45 -62.5h-11l-74 24q22 67 77 104t133 37
q102 0 157.5 -61t55.5 -172v-282h-80v146l30 -16q-12 -41 -42.5 -73.5t-72 -51t-90.5 -18.5zM346 587q-22 0 -39 8t-32 19t-29.5 19t-29.5 8q-17 0 -27.5 -15t-10.5 -38h-71q0 57 28.5 93t74.5 36q21 0 38.5 -8t32.5 -19t29 -19t29 -8q18 0 28 15t10 38h71q0 -57 -28 -93
t-74 -36z" />
    <glyph glyph-name="ae" unicode="&#xe6;" horiz-adv-x="920" 
d="M645 -13q-72 0 -128 33.5t-87.5 92.5t-31.5 138q0 78 31 137.5t86.5 92.5t127.5 33q71 0 124.5 -33t83.5 -93t30 -141v-11l-15 -14h-421v78h390l-40 -16q-3 48 -24 81.5t-54 51t-74 17.5q-44 0 -81 -21.5t-58 -60.5t-21 -90v-20q0 -50 21 -89.5t58 -62.5t83 -23
q47 0 81 22.5t53 61.5h12l70 -31q-28 -62 -84.5 -97.5t-131.5 -35.5zM226 -13q-52 0 -92.5 20t-63.5 55.5t-23 81.5t22.5 81t64 55t96.5 20h215v-78h-202q-57 0 -82.5 -21t-25.5 -56q0 -33 28 -55t72 -22q45 0 82.5 21t59.5 56t22 78v81q0 57 -36 94t-96 37q-46 0 -79 -22.5
t-45 -62.5h-11l-74 24q22 67 77 104t133 37q104 0 159.5 -61t55.5 -172v-157h-80l41 16q-14 -44 -46 -79t-76.5 -55t-95.5 -20z" />
    <glyph glyph-name="b" unicode="b" horiz-adv-x="607" 
d="M330 -13q-52 0 -95.5 21t-74 58t-44.5 84v201q14 48 44.5 84.5t74 57.5t95.5 21q68 0 121 -34t85 -93.5t32 -135.5q0 -77 -32 -136.5t-85 -93.5t-121 -34zM73 0v720l82 10l3 -8v-400l-18 -71l15 -72v-179h-82zM324 68q46 0 82 23.5t56.5 64.5t20.5 95t-20.5 95t-56.5 64
t-82 23q-48 0 -85.5 -23t-59 -64t-21.5 -95t21.5 -95t59 -64.5t85.5 -23.5z" />
    <glyph glyph-name="c" unicode="c" horiz-adv-x="560" 
d="M292 -13q-75 0 -132 33.5t-89 92.5t-32 138q0 78 32 137.5t89 92.5t132 33q57 0 102.5 -20.5t78 -58t48.5 -91.5l-74 -21h-11q-17 51 -55.5 80.5t-88.5 29.5q-51 0 -88.5 -23t-58.5 -64t-21 -95t21 -95.5t58.5 -64.5t88.5 -23q35 0 64 13t50.5 38t33.5 59h11l75 -21
q-18 -54 -52 -92.5t-79.5 -58t-102.5 -19.5z" />
    <glyph glyph-name="cacute" unicode="&#x107;" horiz-adv-x="560" 
d="M292 -13q-75 0 -132 33.5t-89 92.5t-32 138q0 78 32 137.5t89 92.5t132 33q57 0 102.5 -20.5t78 -58t48.5 -91.5l-74 -21h-11q-17 51 -55.5 80.5t-88.5 29.5q-51 0 -88.5 -23t-58.5 -64t-21 -95t21 -95.5t58.5 -64.5t88.5 -23q35 0 64 13t50.5 38t33.5 59h11l75 -21
q-18 -54 -52 -92.5t-79.5 -58t-102.5 -19.5zM233 579l73 145h111v-8l-100 -137h-84z" />
    <glyph glyph-name="ccaron" unicode="&#x10d;" horiz-adv-x="560" 
d="M292 -13q-75 0 -132 33.5t-89 92.5t-32 138q0 78 32 137.5t89 92.5t132 33q57 0 102.5 -20.5t78 -58t48.5 -91.5l-74 -21h-11q-17 51 -55.5 80.5t-88.5 29.5q-51 0 -88.5 -23t-58.5 -64t-21 -95t21 -95.5t58.5 -64.5t88.5 -23q35 0 64 13t50.5 38t33.5 59h11l75 -21
q-18 -54 -52 -92.5t-79.5 -58t-102.5 -19.5zM135 721h89l67 -84l67 84h90l-102 -145h-109z" />
    <glyph glyph-name="ccedilla" unicode="&#xe7;" horiz-adv-x="560" 
d="M292 -13q-75 0 -132 33.5t-89 92.5t-32 138q0 78 32 137.5t89 92.5t132 33q57 0 102.5 -20.5t78 -58t48.5 -91.5l-74 -21h-11q-17 51 -55.5 80.5t-88.5 29.5q-51 0 -88.5 -23t-58.5 -64t-21 -95t21 -95.5t58.5 -64.5t88.5 -23q35 0 64 13t50.5 38t33.5 59h11l75 -21
q-18 -54 -52 -92.5t-79.5 -58t-102.5 -19.5zM277 -209q-13 0 -27.5 3.5t-31.5 14.5l18 52l9 2q8 -4 15.5 -6t13.5 -2q15 0 23.5 8t8.5 19q0 13 -8.5 21t-23.5 8t-24 -8l-31 42l47 68h75l-65 -88l-9 40q5 1 10 1.5t10 0.5q36 0 60.5 -24.5t24.5 -60.5q0 -40 -28 -65.5
t-67 -25.5z" />
    <glyph glyph-name="cdotaccent" unicode="&#x10b;" horiz-adv-x="560" 
d="M292 -13q-75 0 -132 33.5t-89 92.5t-32 138q0 78 32 137.5t89 92.5t132 33q57 0 102.5 -20.5t78 -58t48.5 -91.5l-74 -21h-11q-17 51 -55.5 80.5t-88.5 29.5q-51 0 -88.5 -23t-58.5 -64t-21 -95t21 -95.5t58.5 -64.5t88.5 -23q35 0 64 13t50.5 38t33.5 59h11l75 -21
q-18 -54 -52 -92.5t-79.5 -58t-102.5 -19.5zM291 594q-25 0 -42 17t-17 42t17 42.5t42 17.5t42.5 -17.5t17.5 -42.5t-17.5 -42t-42.5 -17z" />
    <glyph glyph-name="d" unicode="d" horiz-adv-x="607" 
d="M277 -13q-67 0 -121 34t-85.5 93.5t-31.5 136.5q0 76 31.5 135.5t85.5 93.5t121 34q52 0 95.5 -21t74 -57.5t44.5 -84.5v-201q-14 -47 -44.5 -84t-74 -58t-95.5 -21zM283 68q49 0 86 23.5t58.5 64.5t21.5 95t-21.5 95t-58.5 64t-86 23q-45 0 -81.5 -23t-57 -64t-20.5 -95
t20.5 -95t57 -64.5t81.5 -23.5zM452 0v179l15 72l-19 71v398l83 10l3 -8v-722h-82z" />
    <glyph glyph-name="dcaron" unicode="&#x10f;" horiz-adv-x="607" 
d="M277 -13q-67 0 -121 34t-85.5 93.5t-31.5 136.5q0 76 31.5 135.5t85.5 93.5t121 34q52 0 95.5 -21t74 -57.5t44.5 -84.5v-201q-14 -47 -44.5 -84t-74 -58t-95.5 -21zM283 68q49 0 86 23.5t58.5 64.5t21.5 95t-21.5 95t-58.5 64t-86 23q-45 0 -81.5 -23t-57 -64t-20.5 -95
t20.5 -95t57 -64.5t81.5 -23.5zM452 0v179l15 72l-19 71v398l83 10l3 -8v-722h-82zM574 537l20 184h89l-41 -184h-68z" />
    <glyph glyph-name="dcroat" unicode="&#x111;" horiz-adv-x="607" 
d="M277 -13q-67 0 -121 34t-85.5 93.5t-31.5 136.5q0 76 31.5 135.5t85.5 93.5t121 34q52 0 95.5 -21t74 -57.5t44.5 -84.5v-201q-14 -47 -44.5 -84t-74 -58t-95.5 -21zM283 68q49 0 86 23.5t58.5 64.5t21.5 95t-21.5 95t-58.5 64t-86 23q-45 0 -81.5 -23t-57 -64t-20.5 -95
t20.5 -95t57 -64.5t81.5 -23.5zM452 0v179l15 72l-19 71v398l83 10l3 -8v-722h-82zM302 563v83h303v-83h-303z" />
    <glyph glyph-name="eth" unicode="&#xf0;" horiz-adv-x="574" 
d="M282 -13q-71 0 -126 31.5t-86 87.5t-31 129q0 70 31 125t84.5 87t119.5 32q28 0 55.5 -7t53.5 -20t47.5 -31.5t36.5 -41.5l-28 -36q-9 51 -36 98t-68 88t-95 72.5t-116 52.5l33 74q89 -32 158.5 -78.5t117 -104t72.5 -125t25 -143.5q0 -88 -32.5 -153t-89 -101
t-126.5 -36zM282 69q46 0 81.5 20.5t56 58.5t20.5 88q0 47 -21.5 83.5t-58.5 58t-84 21.5q-43 0 -77.5 -21.5t-54.5 -58t-20 -83.5q0 -50 20.5 -88t56.5 -58.5t81 -20.5zM156 497l-32 72l308 139l32 -73z" />
    <glyph glyph-name="e" unicode="e" horiz-adv-x="561" 
d="M287 -13q-73 0 -129 33.5t-87.5 92.5t-31.5 138q0 78 31 137.5t86.5 92.5t127.5 33q71 0 124.5 -33.5t83.5 -94.5t30 -142v-12l-15 -14h-421v79h390l-40 -16q-3 48 -24 82t-54 52.5t-74 18.5q-44 0 -81 -21.5t-58 -60.5t-21 -90v-20q0 -50 21 -89.5t58 -62.5t84 -23
q46 0 80 22.5t53 61.5h12l70 -31q-28 -62 -84.5 -97.5t-130.5 -35.5z" />
    <glyph glyph-name="eacute" unicode="&#xe9;" horiz-adv-x="561" 
d="M287 -13q-73 0 -129 33.5t-87.5 92.5t-31.5 138q0 78 31 137.5t86.5 92.5t127.5 33q71 0 124.5 -33.5t83.5 -94.5t30 -142v-12l-15 -14h-421v79h390l-40 -16q-3 48 -24 82t-54 52.5t-74 18.5q-44 0 -81 -21.5t-58 -60.5t-21 -90v-20q0 -50 21 -89.5t58 -62.5t84 -23
q46 0 80 22.5t53 61.5h12l70 -31q-28 -62 -84.5 -97.5t-130.5 -35.5zM225 579l73 145h111v-8l-100 -137h-84z" />
    <glyph glyph-name="ecaron" unicode="&#x11b;" horiz-adv-x="561" 
d="M287 -13q-73 0 -129 33.5t-87.5 92.5t-31.5 138q0 78 31 137.5t86.5 92.5t127.5 33q71 0 124.5 -33.5t83.5 -94.5t30 -142v-12l-15 -14h-421v79h390l-40 -16q-3 48 -24 82t-54 52.5t-74 18.5q-44 0 -81 -21.5t-58 -60.5t-21 -90v-20q0 -50 21 -89.5t58 -62.5t84 -23
q46 0 80 22.5t53 61.5h12l70 -31q-28 -62 -84.5 -97.5t-130.5 -35.5zM127 721h89l67 -84l67 84h90l-102 -145h-109z" />
    <glyph glyph-name="ecircumflex" unicode="&#xea;" horiz-adv-x="561" 
d="M287 -13q-73 0 -129 33.5t-87.5 92.5t-31.5 138q0 78 31 137.5t86.5 92.5t127.5 33q71 0 124.5 -33.5t83.5 -94.5t30 -142v-12l-15 -14h-421v79h390l-40 -16q-3 48 -24 82t-54 52.5t-74 18.5q-44 0 -81 -21.5t-58 -60.5t-21 -90v-20q0 -50 21 -89.5t58 -62.5t84 -23
q46 0 80 22.5t53 61.5h12l70 -31q-28 -62 -84.5 -97.5t-130.5 -35.5zM127 579l102 145h109l102 -145h-90l-67 84l-67 -84h-89z" />
    <glyph glyph-name="edieresis" unicode="&#xeb;" horiz-adv-x="561" 
d="M287 -13q-73 0 -129 33.5t-87.5 92.5t-31.5 138q0 78 31 137.5t86.5 92.5t127.5 33q71 0 124.5 -33.5t83.5 -94.5t30 -142v-12l-15 -14h-421v79h390l-40 -16q-3 48 -24 82t-54 52.5t-74 18.5q-44 0 -81 -21.5t-58 -60.5t-21 -90v-20q0 -50 21 -89.5t58 -62.5t84 -23
q46 0 80 22.5t53 61.5h12l70 -31q-28 -62 -84.5 -97.5t-130.5 -35.5zM377 594q-25 0 -42 17t-17 42t17 42.5t42 17.5t42.5 -17.5t17.5 -42.5t-17.5 -42t-42.5 -17zM190 594q-25 0 -42 17t-17 42t17 42.5t42 17.5t42.5 -17.5t17.5 -42.5t-17.5 -42t-42.5 -17z" />
    <glyph glyph-name="edotaccent" unicode="&#x117;" horiz-adv-x="561" 
d="M287 -13q-73 0 -129 33.5t-87.5 92.5t-31.5 138q0 78 31 137.5t86.5 92.5t127.5 33q71 0 124.5 -33.5t83.5 -94.5t30 -142v-12l-15 -14h-421v79h390l-40 -16q-3 48 -24 82t-54 52.5t-74 18.5q-44 0 -81 -21.5t-58 -60.5t-21 -90v-20q0 -50 21 -89.5t58 -62.5t84 -23
q46 0 80 22.5t53 61.5h12l70 -31q-28 -62 -84.5 -97.5t-130.5 -35.5zM284 594q-25 0 -42 17t-17 42t17 42.5t42 17.5t42.5 -17.5t17.5 -42.5t-17.5 -42t-42.5 -17z" />
    <glyph glyph-name="egrave" unicode="&#xe8;" horiz-adv-x="561" 
d="M287 -13q-73 0 -129 33.5t-87.5 92.5t-31.5 138q0 78 31 137.5t86.5 92.5t127.5 33q71 0 124.5 -33.5t83.5 -94.5t30 -142v-12l-15 -14h-421v79h390l-40 -16q-3 48 -24 82t-54 52.5t-74 18.5q-44 0 -81 -21.5t-58 -60.5t-21 -90v-20q0 -50 21 -89.5t58 -62.5t84 -23
q46 0 80 22.5t53 61.5h12l70 -31q-28 -62 -84.5 -97.5t-130.5 -35.5zM337 579h-84l-100 137v8h111z" />
    <glyph glyph-name="emacron" unicode="&#x113;" horiz-adv-x="561" 
d="M287 -13q-73 0 -129 33.5t-87.5 92.5t-31.5 138q0 78 31 137.5t86.5 92.5t127.5 33q71 0 124.5 -33.5t83.5 -94.5t30 -142v-12l-15 -14h-421v79h390l-40 -16q-3 48 -24 82t-54 52.5t-74 18.5q-44 0 -81 -21.5t-58 -60.5t-21 -90v-20q0 -50 21 -89.5t58 -62.5t84 -23
q46 0 80 22.5t53 61.5h12l70 -31q-28 -62 -84.5 -97.5t-130.5 -35.5zM127 611v82h313v-82h-313z" />
    <glyph glyph-name="eogonek" unicode="&#x119;" horiz-adv-x="561" 
d="M287 -13q-73 0 -129 33.5t-87.5 92.5t-31.5 138q0 78 31 137.5t86.5 92.5t127.5 33q71 0 124.5 -33.5t83.5 -94.5t30 -142v-12l-15 -14h-421v79h390l-40 -16q-3 48 -24 82t-54 52.5t-74 18.5q-44 0 -81 -21.5t-58 -60.5t-21 -90v-20q0 -50 21 -89.5t58 -62.5t84 -23
q46 0 80 22.5t53 61.5h12l70 -31q-28 -62 -84.5 -97.5t-130.5 -35.5zM323 -209q-50 0 -80.5 28.5t-30.5 75.5q0 44 27 79.5t81 64.5l48 -39q-38 -20 -59 -43t-21 -46q0 -20 13.5 -33t35.5 -13q14 0 26 4l5 -11v-62q-13 -2 -23.5 -3.5t-21.5 -1.5z" />
    <glyph glyph-name="f" unicode="f" horiz-adv-x="334" 
d="M110 0v566q0 71 41 112.5t106 41.5h58v-70l-5 -11h-36q-42 0 -60.5 -17.5t-18.5 -60.5v-561h-85zM24 421v80h291v-80h-291z" />
    <glyph glyph-name="g" unicode="g" horiz-adv-x="522" 
d="M236 -200q-98 0 -153 40t-55 108q0 43 21.5 76.5t63.5 51.5l43 -43q-22 -10 -34 -29t-12 -41q0 -38 30.5 -62.5t86.5 -24.5h70q58 0 91 19.5t33 57.5q0 27 -21.5 43t-63.5 16h-135q-40 0 -72.5 14.5t-51.5 40t-19 59.5q0 33 20 61t62 44l47 -42q-27 -5 -38.5 -19.5
t-11.5 -33.5q0 -23 19 -36t52 -13h131q75 0 119 -37t44 -97q0 -71 -56 -112t-150 -41h-60zM269 157q-59 0 -104.5 23t-70.5 63.5t-25 92.5q0 53 25 93t70.5 62.5t104.5 22.5q60 0 104.5 -22.5t70 -62.5t25.5 -93q0 -52 -25.5 -92.5t-70 -63.5t-104.5 -23zM269 231
q53 0 86 29t33 76q0 46 -33 75t-86 29q-54 0 -86.5 -29t-32.5 -75q0 -47 32.5 -76t86.5 -29zM406 438l-56 35q0 39 16.5 70t43.5 48.5t61 17.5q8 0 17.5 -0.5t14.5 -2.5v-77l-5 -11q-10 3 -24 3q-34 0 -51 -23t-17 -60z" />
    <glyph glyph-name="gbreve" unicode="&#x11f;" horiz-adv-x="522" 
d="M236 -200q-98 0 -153 40t-55 108q0 43 21.5 76.5t63.5 51.5l43 -43q-22 -10 -34 -29t-12 -41q0 -38 30.5 -62.5t86.5 -24.5h70q58 0 91 19.5t33 57.5q0 27 -21.5 43t-63.5 16h-135q-40 0 -72.5 14.5t-51.5 40t-19 59.5q0 33 20 61t62 44l47 -42q-27 -5 -38.5 -19.5
t-11.5 -33.5q0 -23 19 -36t52 -13h131q75 0 119 -37t44 -97q0 -71 -56 -112t-150 -41h-60zM269 157q-59 0 -104.5 23t-70.5 63.5t-25 92.5q0 53 25 93t70.5 62.5t104.5 22.5q60 0 104.5 -22.5t70 -62.5t25.5 -93q0 -52 -25.5 -92.5t-70 -63.5t-104.5 -23zM269 231
q53 0 86 29t33 76q0 46 -33 75t-86 29q-54 0 -86.5 -29t-32.5 -75q0 -47 32.5 -76t86.5 -29zM406 438l-56 35q0 39 16.5 70t43.5 48.5t61 17.5q8 0 17.5 -0.5t14.5 -2.5v-77l-5 -11q-10 3 -24 3q-34 0 -51 -23t-17 -60zM263 577q-42 0 -75.5 18.5t-52.5 52t-19 76.5h78
q1 -32 20 -55t49 -23t49 23t20 55h78q0 -43 -19 -76.5t-52.5 -52t-75.5 -18.5z" />
    <glyph glyph-name="uni0123" unicode="&#x123;" horiz-adv-x="522" 
d="M236 -200q-98 0 -153 40t-55 108q0 43 21.5 76.5t63.5 51.5l43 -43q-22 -10 -34 -29t-12 -41q0 -38 30.5 -62.5t86.5 -24.5h70q58 0 91 19.5t33 57.5q0 27 -21.5 43t-63.5 16h-135q-40 0 -72.5 14.5t-51.5 40t-19 59.5q0 33 20 61t62 44l47 -42q-27 -5 -38.5 -19.5
t-11.5 -33.5q0 -23 19 -36t52 -13h131q75 0 119 -37t44 -97q0 -71 -56 -112t-150 -41h-60zM269 157q-59 0 -104.5 23t-70.5 63.5t-25 92.5q0 53 25 93t70.5 62.5t104.5 22.5q60 0 104.5 -22.5t70 -62.5t25.5 -93q0 -52 -25.5 -92.5t-70 -63.5t-104.5 -23zM269 231
q53 0 86 29t33 76q0 46 -33 75t-86 29q-54 0 -86.5 -29t-32.5 -75q0 -47 32.5 -76t86.5 -29zM406 438l-56 35q0 39 16.5 70t43.5 48.5t61 17.5q8 0 17.5 -0.5t14.5 -2.5v-77l-5 -11q-10 3 -24 3q-34 0 -51 -23t-17 -60zM311 768v-52q-24 -5 -37 -19.5t-13 -32.5q0 -16 4 -26
l-34 -19q-3 11 -3 21q0 15 8.5 23t18 10t13.5 2q23 0 38 -15t15 -37q0 -23 -15 -38.5t-38 -15.5q-29 0 -45.5 25t-16.5 56q0 22 10.5 47t33.5 45.5t61 25.5z" />
    <glyph glyph-name="gdotaccent" unicode="&#x121;" horiz-adv-x="522" 
d="M236 -200q-98 0 -153 40t-55 108q0 43 21.5 76.5t63.5 51.5l43 -43q-22 -10 -34 -29t-12 -41q0 -38 30.5 -62.5t86.5 -24.5h70q58 0 91 19.5t33 57.5q0 27 -21.5 43t-63.5 16h-135q-40 0 -72.5 14.5t-51.5 40t-19 59.5q0 33 20 61t62 44l47 -42q-27 -5 -38.5 -19.5
t-11.5 -33.5q0 -23 19 -36t52 -13h131q75 0 119 -37t44 -97q0 -71 -56 -112t-150 -41h-60zM269 157q-59 0 -104.5 23t-70.5 63.5t-25 92.5q0 53 25 93t70.5 62.5t104.5 22.5q60 0 104.5 -22.5t70 -62.5t25.5 -93q0 -52 -25.5 -92.5t-70 -63.5t-104.5 -23zM269 231
q53 0 86 29t33 76q0 46 -33 75t-86 29q-54 0 -86.5 -29t-32.5 -75q0 -47 32.5 -76t86.5 -29zM406 438l-56 35q0 39 16.5 70t43.5 48.5t61 17.5q8 0 17.5 -0.5t14.5 -2.5v-77l-5 -11q-10 3 -24 3q-34 0 -51 -23t-17 -60zM263 594q-25 0 -42 17t-17 42t17 42.5t42 17.5
t42.5 -17.5t17.5 -42.5t-17.5 -42t-42.5 -17z" />
    <glyph glyph-name="h" unicode="h" horiz-adv-x="582" 
d="M73 0v720l82 10l3 -8v-362l-27 15q14 43 44 74t70.5 48t86.5 17q54 0 96.5 -23t66.5 -68t24 -113v-310h-85v289q0 54 -16 85.5t-43.5 44.5t-62.5 13q-38 0 -73.5 -18.5t-58 -55.5t-22.5 -92v-266h-85z" />
    <glyph glyph-name="hbar" unicode="&#x127;" horiz-adv-x="582" 
d="M73 0v720l82 10l3 -8v-362l-27 15q14 43 44 74t70.5 48t86.5 17q54 0 96.5 -23t66.5 -68t24 -113v-310h-85v289q0 54 -16 85.5t-43.5 44.5t-62.5 13q-38 0 -73.5 -18.5t-58 -55.5t-22.5 -92v-266h-85zM3 563v83h303v-83h-303z" />
    <glyph glyph-name="i" unicode="i" horiz-adv-x="222" 
d="M68 0v501h85v-501h-85zM111 594q-25 0 -42 17t-17 42t17 42.5t42 17.5t42.5 -17.5t17.5 -42.5t-17.5 -42t-42.5 -17z" />
    <glyph glyph-name="dotlessi" unicode="&#x131;" horiz-adv-x="222" 
d="M68 0v501h85v-501h-85z" />
    <glyph glyph-name="iacute" unicode="&#xed;" horiz-adv-x="222" 
d="M68 0v501h85v-501h-85zM66 579l73 145h111v-8l-100 -137h-84z" />
    <glyph glyph-name="icircumflex" unicode="&#xee;" horiz-adv-x="222" 
d="M68 0v501h85v-501h-85zM-45 579l102 145h109l102 -145h-90l-67 84l-67 -84h-89z" />
    <glyph glyph-name="idieresis" unicode="&#xef;" horiz-adv-x="222" 
d="M68 0v501h85v-501h-85zM187 594q-25 0 -42 17t-17 42t17 42.5t42 17.5t42.5 -17.5t17.5 -42.5t-17.5 -42t-42.5 -17zM35 594q-25 0 -42 17t-17 42t17 42.5t42 17.5t42.5 -17.5t17.5 -42.5t-17.5 -42t-42.5 -17z" />
    <glyph glyph-name="igrave" unicode="&#xec;" horiz-adv-x="222" 
d="M68 0v501h85v-501h-85zM145 579h-84l-100 137v8h111z" />
    <glyph glyph-name="imacron" unicode="&#x12b;" horiz-adv-x="222" 
d="M68 0v501h85v-501h-85zM-45 611v82h313v-82h-313z" />
    <glyph glyph-name="iogonek" unicode="&#x12f;" horiz-adv-x="222" 
d="M68 0v501h85v-501h-85zM111 594q-25 0 -42 17t-17 42t17 42.5t42 17.5t42.5 -17.5t17.5 -42.5t-17.5 -42t-42.5 -17zM109 -209q-50 0 -80.5 28.5t-30.5 75.5q0 44 27 79.5t81 64.5l48 -39q-38 -20 -59 -43t-21 -46q0 -20 13.5 -33t35.5 -13q14 0 26 4l5 -11v-62
q-13 -2 -23.5 -3.5t-21.5 -1.5z" />
    <glyph glyph-name="j" unicode="j" horiz-adv-x="222" 
d="M-57 -200v70l5 11h23q53 0 75 22t22 75v523h85v-529q0 -79 -46 -125.5t-118 -46.5h-46zM111 594q-25 0 -42 17t-17 42t17 42.5t42 17.5t42.5 -17.5t17.5 -42.5t-17.5 -42t-42.5 -17z" />
    <glyph glyph-name="uni0237" unicode="&#x237;" horiz-adv-x="222" 
d="M-57 -200v70l5 11h23q53 0 75 22t22 75v523h85v-529q0 -79 -46 -125.5t-118 -46.5h-46z" />
    <glyph glyph-name="k" unicode="k" horiz-adv-x="507" 
d="M113 99v113l295 289h102v-8zM73 0v720l82 10l3 -8v-722h-85zM416 0l-182 259l57 56l220 -307v-8h-95z" />
    <glyph glyph-name="uni0137" unicode="&#x137;" horiz-adv-x="507" 
d="M113 99v113l295 289h102v-8zM73 0v720l82 10l3 -8v-722h-85zM416 0l-182 259l57 56l220 -307v-8h-95zM239 -232v52q23 5 36.5 19.5t13.5 33.5q0 16 -5 26l34 18q3 -10 3 -20q0 -16 -8 -23.5t-17.5 -10t-13.5 -2.5q-23 0 -38.5 15t-15.5 37q0 23 15.5 38.5t38.5 15.5
q29 0 45.5 -25t16.5 -56q0 -22 -10.5 -47t-33.5 -45t-61 -26z" />
    <glyph glyph-name="l" unicode="l" horiz-adv-x="232" 
d="M73 0v720l82 10l3 -8v-722h-85z" />
    <glyph glyph-name="lacute" unicode="&#x13a;" horiz-adv-x="232" 
d="M73 0v720l82 10l3 -8v-722h-85zM74 769l73 145h111v-8l-100 -137h-84z" />
    <glyph glyph-name="lcaron" unicode="&#x13e;" horiz-adv-x="232" 
d="M73 0v720l82 10l3 -8v-722h-85zM200 537l20 184h89l-41 -184h-68z" />
    <glyph glyph-name="uni013C" unicode="&#x13c;" horiz-adv-x="232" 
d="M73 0v720l82 10l3 -8v-722h-85zM70 -232v52q23 5 36.5 19.5t13.5 33.5q0 16 -5 26l34 18q3 -10 3 -20q0 -16 -8 -23.5t-17.5 -10t-13.5 -2.5q-23 0 -38.5 15t-15.5 37q0 23 15.5 38.5t38.5 15.5q29 0 45.5 -25t16.5 -56q0 -22 -10.5 -47t-33.5 -45t-61 -26z" />
    <glyph glyph-name="ldot" unicode="&#x140;" horiz-adv-x="289" 
d="M73 0v720l82 10l3 -8v-722h-85zM260 314q-25 0 -42 17t-17 42t17 42.5t42 17.5t42.5 -17.5t17.5 -42.5t-17.5 -42t-42.5 -17z" />
    <glyph glyph-name="lslash" unicode="&#x142;" horiz-adv-x="262" 
d="M16 231v95l230 143v-95zM88 0v720l82 10l3 -8v-722h-85z" />
    <glyph glyph-name="m" unicode="m" horiz-adv-x="918" 
d="M68 0v501h82v-139l-21 19q14 41 43 70.5t68 46t82 16.5q65 0 113 -37t63 -107l-35 1q13 43 43.5 75t73.5 50t93 18q51 0 92 -23t65 -68t24 -113v-310h-85v290q0 54 -16 85t-42 44t-59 13q-34 0 -68 -18t-57 -54.5t-23 -93.5v-266h-85v290q0 54 -16 85t-42.5 44t-58.5 13
q-34 0 -68.5 -18.5t-57.5 -55t-23 -92.5v-266h-85z" />
    <glyph glyph-name="n" unicode="n" horiz-adv-x="577" 
d="M68 0v501h82v-141l-24 15q14 43 44 74t70.5 48t86.5 17q54 0 96.5 -23t66.5 -68t24 -113v-310h-85v289q0 54 -16 85.5t-43.5 44.5t-62.5 13q-38 0 -73.5 -18.5t-58 -55.5t-22.5 -92v-266h-85z" />
    <glyph glyph-name="nacute" unicode="&#x144;" horiz-adv-x="577" 
d="M68 0v501h82v-141l-24 15q14 43 44 74t70.5 48t86.5 17q54 0 96.5 -23t66.5 -68t24 -113v-310h-85v289q0 54 -16 85.5t-43.5 44.5t-62.5 13q-38 0 -73.5 -18.5t-58 -55.5t-22.5 -92v-266h-85zM227 579l73 145h111v-8l-100 -137h-84z" />
    <glyph glyph-name="ncaron" unicode="&#x148;" horiz-adv-x="577" 
d="M68 0v501h82v-141l-24 15q14 43 44 74t70.5 48t86.5 17q54 0 96.5 -23t66.5 -68t24 -113v-310h-85v289q0 54 -16 85.5t-43.5 44.5t-62.5 13q-38 0 -73.5 -18.5t-58 -55.5t-22.5 -92v-266h-85zM129 721h89l67 -84l67 84h90l-102 -145h-109z" />
    <glyph glyph-name="uni0146" unicode="&#x146;" horiz-adv-x="577" 
d="M68 0v501h82v-141l-24 15q14 43 44 74t70.5 48t86.5 17q54 0 96.5 -23t66.5 -68t24 -113v-310h-85v289q0 54 -16 85.5t-43.5 44.5t-62.5 13q-38 0 -73.5 -18.5t-58 -55.5t-22.5 -92v-266h-85zM239 -232v52q23 5 36.5 19.5t13.5 33.5q0 16 -5 26l34 18q3 -10 3 -20
q0 -16 -8 -23.5t-17.5 -10t-13.5 -2.5q-23 0 -38.5 15t-15.5 37q0 23 15.5 38.5t38.5 15.5q29 0 45.5 -25t16.5 -56q0 -22 -10.5 -47t-33.5 -45t-61 -26z" />
    <glyph glyph-name="ntilde" unicode="&#xf1;" horiz-adv-x="577" 
d="M68 0v501h82v-141l-24 15q14 43 44 74t70.5 48t86.5 17q54 0 96.5 -23t66.5 -68t24 -113v-310h-85v289q0 54 -16 85.5t-43.5 44.5t-62.5 13q-38 0 -73.5 -18.5t-58 -55.5t-22.5 -92v-266h-85zM354 587q-22 0 -39 8t-32 19t-29.5 19t-29.5 8q-17 0 -27.5 -15t-10.5 -38
h-71q0 57 28.5 93t74.5 36q21 0 38.5 -8t32.5 -19t29 -19t29 -8q18 0 28 15t10 38h71q0 -57 -28 -93t-74 -36z" />
    <glyph glyph-name="eng" unicode="&#x14b;" horiz-adv-x="577" 
d="M303 -200v70l5 11h23q53 0 75.5 22t22.5 75v311q0 54 -16 85.5t-43.5 44.5t-62.5 13q-38 0 -73.5 -18.5t-58 -55.5t-22.5 -92v-266h-85v501h82v-141l-24 15q14 43 44 74t70.5 48t86.5 17q54 0 96.5 -23t66.5 -68t24 -113v-338q0 -79 -46 -125.5t-119 -46.5h-46z" />
    <glyph glyph-name="o" unicode="o" horiz-adv-x="577" 
d="M288 -13q-73 0 -129 33.5t-88 93t-32 137.5t32 137.5t88 92.5t129 33q74 0 130 -33t88 -92.5t32 -137.5t-32 -137.5t-88 -93t-130 -33.5zM288 68q49 0 85.5 22.5t57.5 64t21 96.5q0 56 -21 96.5t-57.5 63t-85.5 22.5q-48 0 -85 -22.5t-58 -63t-21 -96.5q0 -55 21 -96.5
t58 -64t85 -22.5z" />
    <glyph glyph-name="oacute" unicode="&#xf3;" horiz-adv-x="577" 
d="M288 -13q-73 0 -129 33.5t-88 93t-32 137.5t32 137.5t88 92.5t129 33q74 0 130 -33t88 -92.5t32 -137.5t-32 -137.5t-88 -93t-130 -33.5zM288 68q49 0 85.5 22.5t57.5 64t21 96.5q0 56 -21 96.5t-57.5 63t-85.5 22.5q-48 0 -85 -22.5t-58 -63t-21 -96.5q0 -55 21 -96.5
t58 -64t85 -22.5zM230 579l73 145h111v-8l-100 -137h-84z" />
    <glyph glyph-name="ocircumflex" unicode="&#xf4;" horiz-adv-x="577" 
d="M288 -13q-73 0 -129 33.5t-88 93t-32 137.5t32 137.5t88 92.5t129 33q74 0 130 -33t88 -92.5t32 -137.5t-32 -137.5t-88 -93t-130 -33.5zM288 68q49 0 85.5 22.5t57.5 64t21 96.5q0 56 -21 96.5t-57.5 63t-85.5 22.5q-48 0 -85 -22.5t-58 -63t-21 -96.5q0 -55 21 -96.5
t58 -64t85 -22.5zM131 579l102 145h109l102 -145h-90l-67 84l-67 -84h-89z" />
    <glyph glyph-name="odieresis" unicode="&#xf6;" horiz-adv-x="577" 
d="M288 -13q-73 0 -129 33.5t-88 93t-32 137.5t32 137.5t88 92.5t129 33q74 0 130 -33t88 -92.5t32 -137.5t-32 -137.5t-88 -93t-130 -33.5zM288 68q49 0 85.5 22.5t57.5 64t21 96.5q0 56 -21 96.5t-57.5 63t-85.5 22.5q-48 0 -85 -22.5t-58 -63t-21 -96.5q0 -55 21 -96.5
t58 -64t85 -22.5zM382 594q-25 0 -42 17t-17 42t17 42.5t42 17.5t42.5 -17.5t17.5 -42.5t-17.5 -42t-42.5 -17zM195 594q-25 0 -42 17t-17 42t17 42.5t42 17.5t42.5 -17.5t17.5 -42.5t-17.5 -42t-42.5 -17z" />
    <glyph glyph-name="ograve" unicode="&#xf2;" horiz-adv-x="577" 
d="M288 -13q-73 0 -129 33.5t-88 93t-32 137.5t32 137.5t88 92.5t129 33q74 0 130 -33t88 -92.5t32 -137.5t-32 -137.5t-88 -93t-130 -33.5zM288 68q49 0 85.5 22.5t57.5 64t21 96.5q0 56 -21 96.5t-57.5 63t-85.5 22.5q-48 0 -85 -22.5t-58 -63t-21 -96.5q0 -55 21 -96.5
t58 -64t85 -22.5zM341 579h-84l-100 137v8h111z" />
    <glyph glyph-name="ohungarumlaut" unicode="&#x151;" horiz-adv-x="577" 
d="M288 -13q-73 0 -129 33.5t-88 93t-32 137.5t32 137.5t88 92.5t129 33q74 0 130 -33t88 -92.5t32 -137.5t-32 -137.5t-88 -93t-130 -33.5zM288 68q49 0 85.5 22.5t57.5 64t21 96.5q0 56 -21 96.5t-57.5 63t-85.5 22.5q-48 0 -85 -22.5t-58 -63t-21 -96.5q0 -55 21 -96.5
t58 -64t85 -22.5zM302 579l58 145h108v-8l-86 -137h-80zM159 579l58 145h108v-8l-85 -137h-81z" />
    <glyph glyph-name="omacron" unicode="&#x14d;" horiz-adv-x="577" 
d="M288 -13q-73 0 -129 33.5t-88 93t-32 137.5t32 137.5t88 92.5t129 33q74 0 130 -33t88 -92.5t32 -137.5t-32 -137.5t-88 -93t-130 -33.5zM288 68q49 0 85.5 22.5t57.5 64t21 96.5q0 56 -21 96.5t-57.5 63t-85.5 22.5q-48 0 -85 -22.5t-58 -63t-21 -96.5q0 -55 21 -96.5
t58 -64t85 -22.5zM132 611v82h313v-82h-313z" />
    <glyph glyph-name="oslash" unicode="&#xf8;" horiz-adv-x="577" 
d="M143 -81l-69 40l359 622l69 -39zM288 -13q-73 0 -129 33.5t-88 93t-32 137.5t32 137.5t88 92.5t129 33q74 0 130 -33t88 -92.5t32 -137.5t-32 -137.5t-88 -93t-130 -33.5zM288 68q49 0 85.5 22.5t57.5 64t21 96.5q0 56 -21 96.5t-57.5 63t-85.5 22.5q-48 0 -85 -22.5
t-58 -63t-21 -96.5q0 -55 21 -96.5t58 -64t85 -22.5z" />
    <glyph glyph-name="otilde" unicode="&#xf5;" horiz-adv-x="577" 
d="M288 -13q-73 0 -129 33.5t-88 93t-32 137.5t32 137.5t88 92.5t129 33q74 0 130 -33t88 -92.5t32 -137.5t-32 -137.5t-88 -93t-130 -33.5zM288 68q49 0 85.5 22.5t57.5 64t21 96.5q0 56 -21 96.5t-57.5 63t-85.5 22.5q-48 0 -85 -22.5t-58 -63t-21 -96.5q0 -55 21 -96.5
t58 -64t85 -22.5zM357 587q-22 0 -39 8t-32 19t-29.5 19t-29.5 8q-17 0 -27.5 -15t-10.5 -38h-71q0 57 28.5 93t74.5 36q21 0 38.5 -8t32.5 -19t29 -19t29 -8q18 0 28 15t10 38h71q0 -57 -28 -93t-74 -36z" />
    <glyph glyph-name="oe" unicode="&#x153;" horiz-adv-x="975" 
d="M288 -13q-73 0 -129 33.5t-88 93t-32 137.5t32 137.5t88 92.5t129 33q74 0 130 -33t88 -92.5t32 -137.5t-32 -137.5t-88 -93t-130 -33.5zM288 68q49 0 85.5 22.5t57.5 64t21 96.5q0 56 -21 96.5t-57.5 63t-85.5 22.5q-48 0 -85 -22.5t-58 -63t-21 -96.5q0 -55 21 -96.5
t58 -64t85 -22.5zM700 -13q-73 0 -129 33.5t-87.5 92.5t-31.5 138q0 78 31 137.5t86.5 92.5t127.5 33q71 0 124.5 -33.5t83.5 -94.5t30 -142v-12l-15 -14h-421v79h390l-40 -16q-3 48 -24 82t-54 52.5t-74 18.5q-44 0 -81 -21.5t-58 -60.5t-21 -90v-20q0 -50 21 -89.5
t58 -62.5t84 -23q46 0 80 22.5t53 61.5h12l70 -31q-28 -62 -84.5 -97.5t-130.5 -35.5z" />
    <glyph glyph-name="p" unicode="p" horiz-adv-x="602" 
d="M325 -13q-52 0 -95.5 21.5t-74 58.5t-44.5 84v200q14 48 44.5 84.5t74 57.5t95.5 21q68 0 121 -34t85 -93.5t32 -135.5q0 -77 -32 -136.5t-85 -93.5t-121 -34zM68 -200v701h82v-179l-15 -71l18 -72v-379h-85zM319 68q46 0 82 23.5t56.5 64.5t20.5 95t-20.5 95t-56.5 64
t-82 23q-48 0 -85.5 -23t-59 -64t-21.5 -95t21.5 -95t59 -64.5t85.5 -23.5z" />
    <glyph glyph-name="thorn" unicode="&#xfe;" horiz-adv-x="602" 
d="M325 -13q-52 0 -95.5 21.5t-74 58.5t-44.5 84v200q14 48 44.5 84.5t74 57.5t95.5 21q68 0 121 -34t85 -93.5t32 -135.5q0 -77 -32 -136.5t-85 -93.5t-121 -34zM68 -200v920l82 10l3 -8v-391l-18 -80l18 -72v-379h-85zM319 68q46 0 82 23.5t56.5 64.5t20.5 95t-20.5 95
t-56.5 64t-82 23q-48 0 -85.5 -23t-59 -64t-21.5 -95t21.5 -95t59 -64.5t85.5 -23.5z" />
    <glyph glyph-name="q" unicode="q" horiz-adv-x="602" 
d="M277 -13q-67 0 -121 34t-85.5 93.5t-31.5 136.5q0 76 31.5 135.5t85.5 93.5t121 34q52 0 95.5 -21t74 -57.5t44.5 -84.5v-200q-14 -47 -44.5 -84t-74 -58.5t-95.5 -21.5zM534 -200h-86v379l19 72l-15 71v179h82v-701zM283 68q49 0 86 23.5t58.5 64.5t21.5 95t-21.5 95
t-58.5 64t-86 23q-45 0 -81.5 -23t-57 -64t-20.5 -95t20.5 -95t57 -64.5t81.5 -23.5z" />
    <glyph glyph-name="r" unicode="r" horiz-adv-x="363" 
d="M68 0v501h82v-141l-24 15q18 58 67 92t110 34h51v-80h-64q-41 0 -71.5 -19.5t-48 -54t-17.5 -80.5v-267h-85z" />
    <glyph glyph-name="racute" unicode="&#x155;" horiz-adv-x="363" 
d="M68 0v501h82v-141l-24 15q18 58 67 92t110 34h51v-80h-64q-41 0 -71.5 -19.5t-48 -54t-17.5 -80.5v-267h-85zM128 579l73 145h111v-8l-100 -137h-84z" />
    <glyph glyph-name="rcaron" unicode="&#x159;" horiz-adv-x="363" 
d="M68 0v501h82v-141l-24 15q18 58 67 92t110 34h51v-80h-64q-41 0 -71.5 -19.5t-48 -54t-17.5 -80.5v-267h-85zM30 721h89l67 -84l67 84h90l-102 -145h-109z" />
    <glyph glyph-name="uni0157" unicode="&#x157;" horiz-adv-x="363" 
d="M68 0v501h82v-141l-24 15q18 58 67 92t110 34h51v-80h-64q-41 0 -71.5 -19.5t-48 -54t-17.5 -80.5v-267h-85zM64 -232v52q23 5 36.5 19.5t13.5 33.5q0 16 -5 26l34 18q3 -10 3 -20q0 -16 -8 -23.5t-17.5 -10t-13.5 -2.5q-23 0 -38.5 15t-15.5 37q0 23 15.5 38.5
t38.5 15.5q29 0 45.5 -25t16.5 -56q0 -22 -10.5 -47t-33.5 -45t-61 -26z" />
    <glyph glyph-name="s" unicode="s" horiz-adv-x="469" 
d="M234 -13q-79 0 -133 38t-72 106l78 19l11 -2q11 -38 44.5 -59.5t78.5 -21.5t76.5 20.5t31.5 53.5q0 27 -18.5 43.5t-55.5 24.5l-93 21q-70 16 -103.5 52t-33.5 86q0 43 23.5 76t65.5 51.5t95 18.5q77 0 130 -38t70 -108l-78 -16l-11 2q-9 38 -41.5 59t-71.5 21
q-41 0 -68.5 -17.5t-27.5 -45.5q0 -23 17.5 -38.5t55.5 -23.5l94 -22q70 -16 104 -51t34 -90q0 -49 -26.5 -84.5t-72 -55t-103.5 -19.5z" />
    <glyph glyph-name="sacute" unicode="&#x15b;" horiz-adv-x="469" 
d="M234 -13q-79 0 -133 38t-72 106l78 19l11 -2q11 -38 44.5 -59.5t78.5 -21.5t76.5 20.5t31.5 53.5q0 27 -18.5 43.5t-55.5 24.5l-93 21q-70 16 -103.5 52t-33.5 86q0 43 23.5 76t65.5 51.5t95 18.5q77 0 130 -38t70 -108l-78 -16l-11 2q-9 38 -41.5 59t-71.5 21
q-41 0 -68.5 -17.5t-27.5 -45.5q0 -23 17.5 -38.5t55.5 -23.5l94 -22q70 -16 104 -51t34 -90q0 -49 -26.5 -84.5t-72 -55t-103.5 -19.5zM178 579l73 145h111v-8l-100 -137h-84z" />
    <glyph glyph-name="scaron" unicode="&#x161;" horiz-adv-x="469" 
d="M234 -13q-79 0 -133 38t-72 106l78 19l11 -2q11 -38 44.5 -59.5t78.5 -21.5t76.5 20.5t31.5 53.5q0 27 -18.5 43.5t-55.5 24.5l-93 21q-70 16 -103.5 52t-33.5 86q0 43 23.5 76t65.5 51.5t95 18.5q77 0 130 -38t70 -108l-78 -16l-11 2q-9 38 -41.5 59t-71.5 21
q-41 0 -68.5 -17.5t-27.5 -45.5q0 -23 17.5 -38.5t55.5 -23.5l94 -22q70 -16 104 -51t34 -90q0 -49 -26.5 -84.5t-72 -55t-103.5 -19.5zM80 721h89l67 -84l67 84h90l-102 -145h-109z" />
    <glyph glyph-name="scedilla" unicode="&#x15f;" horiz-adv-x="469" 
d="M234 -13q-79 0 -133 38t-72 106l78 19l11 -2q11 -38 44.5 -59.5t78.5 -21.5t76.5 20.5t31.5 53.5q0 27 -18.5 43.5t-55.5 24.5l-93 21q-70 16 -103.5 52t-33.5 86q0 43 23.5 76t65.5 51.5t95 18.5q77 0 130 -38t70 -108l-78 -16l-11 2q-9 38 -41.5 59t-71.5 21
q-41 0 -68.5 -17.5t-27.5 -45.5q0 -23 17.5 -38.5t55.5 -23.5l94 -22q70 -16 104 -51t34 -90q0 -49 -26.5 -84.5t-72 -55t-103.5 -19.5zM232 -209q-13 0 -27.5 3.5t-31.5 14.5l18 52l9 2q8 -4 15.5 -6t13.5 -2q15 0 23.5 8t8.5 19q0 13 -8.5 21t-23.5 8t-24 -8l-31 42l47 68
h75l-65 -88l-9 40q5 1 10 1.5t10 0.5q36 0 60.5 -24.5t24.5 -60.5q0 -40 -28 -65.5t-67 -25.5z" />
    <glyph glyph-name="uni0219" unicode="&#x219;" horiz-adv-x="469" 
d="M234 -13q-79 0 -133 38t-72 106l78 19l11 -2q11 -38 44.5 -59.5t78.5 -21.5t76.5 20.5t31.5 53.5q0 27 -18.5 43.5t-55.5 24.5l-93 21q-70 16 -103.5 52t-33.5 86q0 43 23.5 76t65.5 51.5t95 18.5q77 0 130 -38t70 -108l-78 -16l-11 2q-9 38 -41.5 59t-71.5 21
q-41 0 -68.5 -17.5t-27.5 -45.5q0 -23 17.5 -38.5t55.5 -23.5l94 -22q70 -16 104 -51t34 -90q0 -49 -26.5 -84.5t-72 -55t-103.5 -19.5zM186 -232v52q23 5 36.5 19.5t13.5 33.5q0 16 -5 26l34 18q3 -10 3 -20q0 -16 -8 -23.5t-17.5 -10t-13.5 -2.5q-23 0 -38.5 15t-15.5 37
q0 23 15.5 38.5t38.5 15.5q29 0 45.5 -25t16.5 -56q0 -22 -10.5 -47t-33.5 -45t-61 -26z" />
    <glyph glyph-name="germandbls" unicode="&#xdf;" horiz-adv-x="544" 
d="M63 0v462q0 90 31 145.5t81.5 81t106.5 25.5q53 0 98.5 -23t73.5 -64t28 -97q0 -76 -45 -119t-117 -50v21q58 0 101 -22.5t66 -62.5t23 -94q0 -59 -27 -105t-78.5 -72t-124.5 -26h-60v82h62q44 0 76 16t48.5 44t16.5 68q0 58 -38 89.5t-104 31.5h-61v80h52
q34 0 61.5 13.5t44 38.5t16.5 60q0 33 -16 57.5t-42 38t-57 13.5q-33 0 -63 -15.5t-49 -51.5t-19 -98v-467h-85z" />
    <glyph glyph-name="t" unicode="t" horiz-adv-x="384" 
d="M257 0q-65 0 -106 41.5t-41 112.5v482h85v-475q0 -43 19 -61.5t61 -18.5h60l5 -11v-70h-83zM24 421v80h316v-80h-316z" />
    <glyph glyph-name="tcaron" unicode="&#x165;" horiz-adv-x="384" 
d="M257 0q-65 0 -106 41.5t-41 112.5v482h85v-475q0 -43 19 -61.5t61 -18.5h60l5 -11v-70h-83zM24 421v80h316v-80h-316zM232 537l20 184h89l-41 -184h-68z" />
    <glyph glyph-name="uni021B" unicode="&#x21b;" horiz-adv-x="384" 
d="M257 0q-65 0 -106 41.5t-41 112.5v482h85v-475q0 -43 19 -61.5t61 -18.5h60l5 -11v-70h-83zM24 421v80h316v-80h-316zM182 -232v52q23 5 36.5 19.5t13.5 33.5q0 16 -5 26l34 18q3 -10 3 -20q0 -16 -8 -23.5t-17.5 -10t-13.5 -2.5q-23 0 -38.5 15t-15.5 37q0 23 15.5 38.5
t38.5 15.5q29 0 45.5 -25t16.5 -56q0 -22 -10.5 -47t-33.5 -45t-61 -26z" />
    <glyph glyph-name="u" unicode="u" horiz-adv-x="577" 
d="M509 501v-501h-82v141l24 -15q-14 -42 -43.5 -73.5t-70 -48.5t-87.5 -17q-54 0 -96 23t-66.5 68.5t-24.5 112.5v310h85v-288q0 -54 16.5 -85.5t44 -45t62.5 -13.5q39 0 73.5 19t57 56t22.5 91v266h85z" />
    <glyph glyph-name="uacute" unicode="&#xfa;" horiz-adv-x="577" 
d="M509 501v-501h-82v141l24 -15q-14 -42 -43.5 -73.5t-70 -48.5t-87.5 -17q-54 0 -96 23t-66.5 68.5t-24.5 112.5v310h85v-288q0 -54 16.5 -85.5t44 -45t62.5 -13.5q39 0 73.5 19t57 56t22.5 91v266h85zM227 579l73 145h111v-8l-100 -137h-84z" />
    <glyph glyph-name="ubreve" unicode="&#x16d;" horiz-adv-x="577" 
d="M509 501v-501h-82v141l24 -15q-14 -42 -43.5 -73.5t-70 -48.5t-87.5 -17q-54 0 -96 23t-66.5 68.5t-24.5 112.5v310h85v-288q0 -54 16.5 -85.5t44 -45t62.5 -13.5q39 0 73.5 19t57 56t22.5 91v266h85zM286 577q-42 0 -75.5 18.5t-52.5 52t-19 76.5h78q1 -32 20 -55
t49 -23t49 23t20 55h78q0 -43 -19 -76.5t-52.5 -52t-75.5 -18.5z" />
    <glyph glyph-name="ucircumflex" unicode="&#xfb;" horiz-adv-x="577" 
d="M509 501v-501h-82v141l24 -15q-14 -42 -43.5 -73.5t-70 -48.5t-87.5 -17q-54 0 -96 23t-66.5 68.5t-24.5 112.5v310h85v-288q0 -54 16.5 -85.5t44 -45t62.5 -13.5q39 0 73.5 19t57 56t22.5 91v266h85zM129 579l102 145h109l102 -145h-90l-67 84l-67 -84h-89z" />
    <glyph glyph-name="udieresis" unicode="&#xfc;" horiz-adv-x="577" 
d="M509 501v-501h-82v141l24 -15q-14 -42 -43.5 -73.5t-70 -48.5t-87.5 -17q-54 0 -96 23t-66.5 68.5t-24.5 112.5v310h85v-288q0 -54 16.5 -85.5t44 -45t62.5 -13.5q39 0 73.5 19t57 56t22.5 91v266h85zM380 594q-25 0 -42 17t-17 42t17 42.5t42 17.5t42.5 -17.5
t17.5 -42.5t-17.5 -42t-42.5 -17zM192 594q-25 0 -42 17t-17 42t17 42.5t42 17.5t42.5 -17.5t17.5 -42.5t-17.5 -42t-42.5 -17z" />
    <glyph glyph-name="ugrave" unicode="&#xf9;" horiz-adv-x="577" 
d="M509 501v-501h-82v141l24 -15q-14 -42 -43.5 -73.5t-70 -48.5t-87.5 -17q-54 0 -96 23t-66.5 68.5t-24.5 112.5v310h85v-288q0 -54 16.5 -85.5t44 -45t62.5 -13.5q39 0 73.5 19t57 56t22.5 91v266h85zM339 579h-84l-100 137v8h111z" />
    <glyph glyph-name="uhungarumlaut" unicode="&#x171;" horiz-adv-x="577" 
d="M509 501v-501h-82v141l24 -15q-14 -42 -43.5 -73.5t-70 -48.5t-87.5 -17q-54 0 -96 23t-66.5 68.5t-24.5 112.5v310h85v-288q0 -54 16.5 -85.5t44 -45t62.5 -13.5q39 0 73.5 19t57 56t22.5 91v266h85zM299 579l58 145h108v-8l-86 -137h-80zM156 579l58 145h108v-8
l-85 -137h-81z" />
    <glyph glyph-name="umacron" unicode="&#x16b;" horiz-adv-x="577" 
d="M509 501v-501h-82v141l24 -15q-14 -42 -43.5 -73.5t-70 -48.5t-87.5 -17q-54 0 -96 23t-66.5 68.5t-24.5 112.5v310h85v-288q0 -54 16.5 -85.5t44 -45t62.5 -13.5q39 0 73.5 19t57 56t22.5 91v266h85zM130 611v82h313v-82h-313z" />
    <glyph glyph-name="uogonek" unicode="&#x173;" horiz-adv-x="577" 
d="M509 501v-501h-82v141l24 -15q-14 -42 -43.5 -73.5t-70 -48.5t-87.5 -17q-54 0 -96 23t-66.5 68.5t-24.5 112.5v310h85v-288q0 -54 16.5 -85.5t44 -45t62.5 -13.5q39 0 73.5 19t57 56t22.5 91v266h85zM464 -209q-50 0 -80.5 28.5t-30.5 75.5q0 44 27 79.5t81 64.5l48 -39
q-38 -20 -59 -43t-21 -46q0 -20 13.5 -33t35.5 -13q14 0 26 4l5 -11v-62q-13 -2 -23.5 -3.5t-21.5 -1.5z" />
    <glyph glyph-name="uring" unicode="&#x16f;" horiz-adv-x="577" 
d="M509 501v-501h-82v141l24 -15q-14 -42 -43.5 -73.5t-70 -48.5t-87.5 -17q-54 0 -96 23t-66.5 68.5t-24.5 112.5v310h85v-288q0 -54 16.5 -85.5t44 -45t62.5 -13.5q39 0 73.5 19t57 56t22.5 91v266h85zM287 542q-34 0 -62 15.5t-44 43t-16 60.5q0 34 16 60.5t44 42
t62 15.5q35 0 62 -15.5t43 -42t16 -60.5q0 -33 -16 -60.5t-43 -43t-62 -15.5zM287 608q23 0 38 15.5t15 37.5t-15 37.5t-38 15.5t-38.5 -15.5t-15.5 -37.5t15.5 -37.5t38.5 -15.5z" />
    <glyph glyph-name="v" unicode="v" horiz-adv-x="507" 
d="M234 0l2 70l174 431h88v-8l-203 -493h-61zM212 0l-203 493v8h88l174 -431l3 -70h-62z" />
    <glyph glyph-name="w" unicode="w" horiz-adv-x="774" 
d="M177 0l-163 493v8h85l137 -432l21 -69h-80zM177 0l26 69l144 432h80l-3 -8l-167 -493h-80zM517 0l-166 493l-4 8h80l144 -432l26 -69h-80zM517 0l21 69l136 432h86v-8l-163 -493h-80z" />
    <glyph glyph-name="wacute" unicode="&#x1e83;" horiz-adv-x="774" 
d="M177 0l-163 493v8h85l137 -432l21 -69h-80zM177 0l26 69l144 432h80l-3 -8l-167 -493h-80zM517 0l-166 493l-4 8h80l144 -432l26 -69h-80zM517 0l21 69l136 432h86v-8l-163 -493h-80zM344 579l73 145h111v-8l-100 -137h-84z" />
    <glyph glyph-name="wcircumflex" unicode="&#x175;" horiz-adv-x="774" 
d="M177 0l-163 493v8h85l137 -432l21 -69h-80zM177 0l26 69l144 432h80l-3 -8l-167 -493h-80zM517 0l-166 493l-4 8h80l144 -432l26 -69h-80zM517 0l21 69l136 432h86v-8l-163 -493h-80zM232 579l102 145h109l102 -145h-90l-67 84l-67 -84h-89z" />
    <glyph glyph-name="wdieresis" unicode="&#x1e85;" horiz-adv-x="774" 
d="M177 0l-163 493v8h85l137 -432l21 -69h-80zM177 0l26 69l144 432h80l-3 -8l-167 -493h-80zM517 0l-166 493l-4 8h80l144 -432l26 -69h-80zM517 0l21 69l136 432h86v-8l-163 -493h-80zM482 594q-25 0 -42 17t-17 42t17 42.5t42 17.5t42.5 -17.5t17.5 -42.5t-17.5 -42
t-42.5 -17zM295 594q-25 0 -42 17t-17 42t17 42.5t42 17.5t42.5 -17.5t17.5 -42.5t-17.5 -42t-42.5 -17z" />
    <glyph glyph-name="wgrave" unicode="&#x1e81;" horiz-adv-x="774" 
d="M177 0l-163 493v8h85l137 -432l21 -69h-80zM177 0l26 69l144 432h80l-3 -8l-167 -493h-80zM517 0l-166 493l-4 8h80l144 -432l26 -69h-80zM517 0l21 69l136 432h86v-8l-163 -493h-80zM420 579h-84l-100 137v8h111z" />
    <glyph glyph-name="x" unicode="x" horiz-adv-x="457" 
d="M357 0l-351 493v8h96l351 -493v-8h-96zM4 0v8l201 281l51 -66l-156 -223h-96zM262 220l-52 68l148 213h93v-8z" />
    <glyph glyph-name="y" unicode="y" horiz-adv-x="516" 
d="M129 -200v8l82 192l30 64l177 437h89v-8l-291 -693h-87zM211 0l-202 493v8h88l173 -431v-70h-59z" />
    <glyph glyph-name="yacute" unicode="&#xfd;" horiz-adv-x="516" 
d="M129 -200v8l82 192l30 64l177 437h89v-8l-291 -693h-87zM211 0l-202 493v8h88l173 -431v-70h-59zM200 579l73 145h111v-8l-100 -137h-84z" />
    <glyph glyph-name="ycircumflex" unicode="&#x177;" horiz-adv-x="516" 
d="M129 -200v8l82 192l30 64l177 437h89v-8l-291 -693h-87zM211 0l-202 493v8h88l173 -431v-70h-59zM102 579l102 145h109l102 -145h-90l-67 84l-67 -84h-89z" />
    <glyph glyph-name="ydieresis" unicode="&#xff;" horiz-adv-x="516" 
d="M129 -200v8l82 192l30 64l177 437h89v-8l-291 -693h-87zM211 0l-202 493v8h88l173 -431v-70h-59zM352 594q-25 0 -42 17t-17 42t17 42.5t42 17.5t42.5 -17.5t17.5 -42.5t-17.5 -42t-42.5 -17zM165 594q-25 0 -42 17t-17 42t17 42.5t42 17.5t42.5 -17.5t17.5 -42.5
t-17.5 -42t-42.5 -17z" />
    <glyph glyph-name="ygrave" unicode="&#x1ef3;" horiz-adv-x="516" 
d="M129 -200v8l82 192l30 64l177 437h89v-8l-291 -693h-87zM211 0l-202 493v8h88l173 -431v-70h-59zM311 579h-84l-100 137v8h111z" />
    <glyph glyph-name="z" unicode="z" horiz-adv-x="459" 
d="M24 0v77l345 390l10 -46h-352v80h408v-75l-345 -393l-10 48h355v-81h-411z" />
    <glyph glyph-name="zacute" unicode="&#x17a;" horiz-adv-x="459" 
d="M24 0v77l345 390l10 -46h-352v80h408v-75l-345 -393l-10 48h355v-81h-411zM171 579l73 145h111v-8l-100 -137h-84z" />
    <glyph glyph-name="zcaron" unicode="&#x17e;" horiz-adv-x="459" 
d="M24 0v77l345 390l10 -46h-352v80h408v-75l-345 -393l-10 48h355v-81h-411zM73 721h89l67 -84l67 84h90l-102 -145h-109z" />
    <glyph glyph-name="zdotaccent" unicode="&#x17c;" horiz-adv-x="459" 
d="M24 0v77l345 390l10 -46h-352v80h408v-75l-345 -393l-10 48h355v-81h-411zM229 594q-25 0 -42 17t-17 42t17 42.5t42 17.5t42.5 -17.5t17.5 -42.5t-17.5 -42t-42.5 -17z" />
    <glyph glyph-name="iogonek.dotless" horiz-adv-x="222" 
d="M68 0v501h85v-501h-85zM109 -209q-50 0 -80.5 28.5t-30.5 75.5q0 44 27 79.5t81 64.5l48 -39q-38 -20 -59 -43t-21 -46q0 -20 13.5 -33t35.5 -13q14 0 26 4l5 -11v-62q-13 -2 -23.5 -3.5t-21.5 -1.5z" />
    <glyph glyph-name="a.ss03" horiz-adv-x="602" 
d="M277 -13q-67 0 -121 34t-85.5 93.5t-31.5 136.5q0 76 31.5 135.5t85.5 93.5t121 34q52 0 95.5 -21t74 -57.5t44.5 -84.5v-201q-14 -47 -44.5 -84t-74 -58t-95.5 -21zM283 68q49 0 86 23.5t58.5 64.5t21.5 95t-21.5 95t-58.5 64t-86 23q-45 0 -81.5 -23t-57 -64t-20.5 -95
t20.5 -95t57 -64.5t81.5 -23.5zM452 0v179l15 72l-17 71v179h84v-501h-82z" />
    <glyph glyph-name="aacute.ss03" horiz-adv-x="602" 
d="M277 -13q-67 0 -121 34t-85.5 93.5t-31.5 136.5q0 76 31.5 135.5t85.5 93.5t121 34q52 0 95.5 -21t74 -57.5t44.5 -84.5v-201q-14 -47 -44.5 -84t-74 -58t-95.5 -21zM283 68q49 0 86 23.5t58.5 64.5t21.5 95t-21.5 95t-58.5 64t-86 23q-45 0 -81.5 -23t-57 -64t-20.5 -95
t20.5 -95t57 -64.5t81.5 -23.5zM452 0v179l15 72l-17 71v179h84v-501h-82zM238 579l73 145h111v-8l-100 -137h-84z" />
    <glyph glyph-name="abreve.ss03" horiz-adv-x="602" 
d="M277 -13q-67 0 -121 34t-85.5 93.5t-31.5 136.5q0 76 31.5 135.5t85.5 93.5t121 34q52 0 95.5 -21t74 -57.5t44.5 -84.5v-201q-14 -47 -44.5 -84t-74 -58t-95.5 -21zM283 68q49 0 86 23.5t58.5 64.5t21.5 95t-21.5 95t-58.5 64t-86 23q-45 0 -81.5 -23t-57 -64t-20.5 -95
t20.5 -95t57 -64.5t81.5 -23.5zM452 0v179l15 72l-17 71v179h84v-501h-82zM296 577q-42 0 -75.5 18.5t-52.5 52t-19 76.5h78q1 -32 20 -55t49 -23t49 23t20 55h78q0 -43 -19 -76.5t-52.5 -52t-75.5 -18.5z" />
    <glyph glyph-name="acircumflex.ss03" horiz-adv-x="602" 
d="M277 -13q-67 0 -121 34t-85.5 93.5t-31.5 136.5q0 76 31.5 135.5t85.5 93.5t121 34q52 0 95.5 -21t74 -57.5t44.5 -84.5v-201q-14 -47 -44.5 -84t-74 -58t-95.5 -21zM283 68q49 0 86 23.5t58.5 64.5t21.5 95t-21.5 95t-58.5 64t-86 23q-45 0 -81.5 -23t-57 -64t-20.5 -95
t20.5 -95t57 -64.5t81.5 -23.5zM452 0v179l15 72l-17 71v179h84v-501h-82zM140 579l102 145h109l102 -145h-90l-67 84l-67 -84h-89z" />
    <glyph glyph-name="adieresis.ss03" horiz-adv-x="602" 
d="M277 -13q-67 0 -121 34t-85.5 93.5t-31.5 136.5q0 76 31.5 135.5t85.5 93.5t121 34q52 0 95.5 -21t74 -57.5t44.5 -84.5v-201q-14 -47 -44.5 -84t-74 -58t-95.5 -21zM283 68q49 0 86 23.5t58.5 64.5t21.5 95t-21.5 95t-58.5 64t-86 23q-45 0 -81.5 -23t-57 -64t-20.5 -95
t20.5 -95t57 -64.5t81.5 -23.5zM452 0v179l15 72l-17 71v179h84v-501h-82zM390 594q-25 0 -42 17t-17 42t17 42.5t42 17.5t42.5 -17.5t17.5 -42.5t-17.5 -42t-42.5 -17zM203 594q-25 0 -42 17t-17 42t17 42.5t42 17.5t42.5 -17.5t17.5 -42.5t-17.5 -42t-42.5 -17z" />
    <glyph glyph-name="agrave.ss03" horiz-adv-x="602" 
d="M277 -13q-67 0 -121 34t-85.5 93.5t-31.5 136.5q0 76 31.5 135.5t85.5 93.5t121 34q52 0 95.5 -21t74 -57.5t44.5 -84.5v-201q-14 -47 -44.5 -84t-74 -58t-95.5 -21zM283 68q49 0 86 23.5t58.5 64.5t21.5 95t-21.5 95t-58.5 64t-86 23q-45 0 -81.5 -23t-57 -64t-20.5 -95
t20.5 -95t57 -64.5t81.5 -23.5zM452 0v179l15 72l-17 71v179h84v-501h-82zM349 579h-84l-100 137v8h111z" />
    <glyph glyph-name="amacron.ss03" horiz-adv-x="602" 
d="M277 -13q-67 0 -121 34t-85.5 93.5t-31.5 136.5q0 76 31.5 135.5t85.5 93.5t121 34q52 0 95.5 -21t74 -57.5t44.5 -84.5v-201q-14 -47 -44.5 -84t-74 -58t-95.5 -21zM283 68q49 0 86 23.5t58.5 64.5t21.5 95t-21.5 95t-58.5 64t-86 23q-45 0 -81.5 -23t-57 -64t-20.5 -95
t20.5 -95t57 -64.5t81.5 -23.5zM452 0v179l15 72l-17 71v179h84v-501h-82zM140 611v82h313v-82h-313z" />
    <glyph glyph-name="aogonek.ss03" horiz-adv-x="602" 
d="M277 -13q-67 0 -121 34t-85.5 93.5t-31.5 136.5q0 76 31.5 135.5t85.5 93.5t121 34q52 0 95.5 -21t74 -57.5t44.5 -84.5v-201q-14 -47 -44.5 -84t-74 -58t-95.5 -21zM283 68q49 0 86 23.5t58.5 64.5t21.5 95t-21.5 95t-58.5 64t-86 23q-45 0 -81.5 -23t-57 -64t-20.5 -95
t20.5 -95t57 -64.5t81.5 -23.5zM452 0v179l15 72l-17 71v179h84v-501h-82zM489 -209q-50 0 -80.5 28.5t-30.5 75.5q0 44 27 79.5t81 64.5l48 -39q-38 -20 -59 -43t-21 -46q0 -20 13.5 -33t35.5 -13q14 0 26 4l5 -11v-62q-13 -2 -23.5 -3.5t-21.5 -1.5z" />
    <glyph glyph-name="aring.ss03" horiz-adv-x="602" 
d="M277 -13q-67 0 -121 34t-85.5 93.5t-31.5 136.5q0 76 31.5 135.5t85.5 93.5t121 34q52 0 95.5 -21t74 -57.5t44.5 -84.5v-201q-14 -47 -44.5 -84t-74 -58t-95.5 -21zM283 68q49 0 86 23.5t58.5 64.5t21.5 95t-21.5 95t-58.5 64t-86 23q-45 0 -81.5 -23t-57 -64t-20.5 -95
t20.5 -95t57 -64.5t81.5 -23.5zM452 0v179l15 72l-17 71v179h84v-501h-82zM297 542q-34 0 -62 15.5t-44 43t-16 60.5q0 34 16 60.5t44 42t62 15.5q35 0 62 -15.5t43 -42t16 -60.5q0 -33 -16 -60.5t-43 -43t-62 -15.5zM297 608q23 0 38 15.5t15 37.5t-15 37.5t-38 15.5
t-38.5 -15.5t-15.5 -37.5t15.5 -37.5t38.5 -15.5z" />
    <glyph glyph-name="atilde.ss03" horiz-adv-x="602" 
d="M277 -13q-67 0 -121 34t-85.5 93.5t-31.5 136.5q0 76 31.5 135.5t85.5 93.5t121 34q52 0 95.5 -21t74 -57.5t44.5 -84.5v-201q-14 -47 -44.5 -84t-74 -58t-95.5 -21zM283 68q49 0 86 23.5t58.5 64.5t21.5 95t-21.5 95t-58.5 64t-86 23q-45 0 -81.5 -23t-57 -64t-20.5 -95
t20.5 -95t57 -64.5t81.5 -23.5zM452 0v179l15 72l-17 71v179h84v-501h-82zM365 587q-22 0 -39 8t-32 19t-29.5 19t-29.5 8q-17 0 -27.5 -15t-10.5 -38h-71q0 57 28.5 93t74.5 36q21 0 38.5 -8t32.5 -19t29 -19t29 -8q18 0 28 15t10 38h71q0 -57 -28 -93t-74 -36z" />
    <glyph glyph-name="g.ss03" horiz-adv-x="602" 
d="M290 -213q-63 0 -109.5 20t-77.5 54t-45 78l76 24h11q12 -41 50.5 -69t95.5 -28q47 0 82.5 20.5t55 57t19.5 84.5v163l19 70l-15 69v171h82v-454q0 -75 -29 -134t-83.5 -92.5t-131.5 -33.5zM277 6q-66 0 -120 32.5t-86 90.5t-32 131q0 74 31.5 131.5t85.5 90t121 32.5
q52 0 95.5 -20t74 -56t44.5 -82v-192q-14 -46 -44.5 -82t-74 -56t-95.5 -20zM283 87q49 0 86 21.5t58.5 61t21.5 90.5t-21.5 90t-58.5 61t-86 22q-45 0 -81.5 -22t-57 -61t-20.5 -90t20.5 -90.5t57 -61t81.5 -21.5z" />
    <glyph glyph-name="gbreve.ss03" horiz-adv-x="602" 
d="M290 -213q-63 0 -109.5 20t-77.5 54t-45 78l76 24h11q12 -41 50.5 -69t95.5 -28q47 0 82.5 20.5t55 57t19.5 84.5v163l19 70l-15 69v171h82v-454q0 -75 -29 -134t-83.5 -92.5t-131.5 -33.5zM277 6q-66 0 -120 32.5t-86 90.5t-32 131q0 74 31.5 131.5t85.5 90t121 32.5
q52 0 95.5 -20t74 -56t44.5 -82v-192q-14 -46 -44.5 -82t-74 -56t-95.5 -20zM283 87q49 0 86 21.5t58.5 61t21.5 90.5t-21.5 90t-58.5 61t-86 22q-45 0 -81.5 -22t-57 -61t-20.5 -90t20.5 -90.5t57 -61t81.5 -21.5zM296 577q-42 0 -75.5 18.5t-52.5 52t-19 76.5h78
q1 -32 20 -55t49 -23t49 23t20 55h78q0 -43 -19 -76.5t-52.5 -52t-75.5 -18.5z" />
    <glyph glyph-name="uni0123.ss03" horiz-adv-x="602" 
d="M290 -213q-63 0 -109.5 20t-77.5 54t-45 78l76 24h11q12 -41 50.5 -69t95.5 -28q47 0 82.5 20.5t55 57t19.5 84.5v163l19 70l-15 69v171h82v-454q0 -75 -29 -134t-83.5 -92.5t-131.5 -33.5zM277 6q-66 0 -120 32.5t-86 90.5t-32 131q0 74 31.5 131.5t85.5 90t121 32.5
q52 0 95.5 -20t74 -56t44.5 -82v-192q-14 -46 -44.5 -82t-74 -56t-95.5 -20zM283 87q49 0 86 21.5t58.5 61t21.5 90.5t-21.5 90t-58.5 61t-86 22q-45 0 -81.5 -22t-57 -61t-20.5 -90t20.5 -90.5t57 -61t81.5 -21.5zM344 768v-52q-24 -5 -37 -19.5t-13 -32.5q0 -16 4 -26
l-34 -19q-3 11 -3 21q0 15 8.5 23t18 10t13.5 2q23 0 38 -15t15 -37q0 -23 -15 -38.5t-38 -15.5q-29 0 -45.5 25t-16.5 56q0 22 10.5 47t33.5 45.5t61 25.5z" />
    <glyph glyph-name="gdotaccent.ss03" horiz-adv-x="602" 
d="M290 -213q-63 0 -109.5 20t-77.5 54t-45 78l76 24h11q12 -41 50.5 -69t95.5 -28q47 0 82.5 20.5t55 57t19.5 84.5v163l19 70l-15 69v171h82v-454q0 -75 -29 -134t-83.5 -92.5t-131.5 -33.5zM277 6q-66 0 -120 32.5t-86 90.5t-32 131q0 74 31.5 131.5t85.5 90t121 32.5
q52 0 95.5 -20t74 -56t44.5 -82v-192q-14 -46 -44.5 -82t-74 -56t-95.5 -20zM283 87q49 0 86 21.5t58.5 61t21.5 90.5t-21.5 90t-58.5 61t-86 22q-45 0 -81.5 -22t-57 -61t-20.5 -90t20.5 -90.5t57 -61t81.5 -21.5zM296 594q-25 0 -42 17t-17 42t17 42.5t42 17.5t42.5 -17.5
t17.5 -42.5t-17.5 -42t-42.5 -17z" />
    <glyph glyph-name="a.ss04" horiz-adv-x="602" 
d="M277 -13q-67 0 -121 34t-85.5 93.5t-31.5 136.5q0 76 31.5 135.5t85.5 93.5t121 34q52 0 95.5 -21t74 -57.5t44.5 -84.5v-201q-14 -47 -44.5 -84t-74 -58t-95.5 -21zM283 68q49 0 86 23.5t58.5 64.5t21.5 95t-21.5 95t-58.5 64t-86 23q-45 0 -81.5 -23t-57 -64t-20.5 -95
t20.5 -95t57 -64.5t81.5 -23.5zM577 0q-61 0 -93 38t-32 101v45l15 67l-17 71v179h84v-356q0 -36 15 -50t42 -14l5 -11v-70h-19z" />
    <glyph glyph-name="aacute.ss04" horiz-adv-x="602" 
d="M277 -13q-67 0 -121 34t-85.5 93.5t-31.5 136.5q0 76 31.5 135.5t85.5 93.5t121 34q52 0 95.5 -21t74 -57.5t44.5 -84.5v-201q-14 -47 -44.5 -84t-74 -58t-95.5 -21zM283 68q49 0 86 23.5t58.5 64.5t21.5 95t-21.5 95t-58.5 64t-86 23q-45 0 -81.5 -23t-57 -64t-20.5 -95
t20.5 -95t57 -64.5t81.5 -23.5zM577 0q-61 0 -93 38t-32 101v45l15 67l-17 71v179h84v-356q0 -36 15 -50t42 -14l5 -11v-70h-19zM238 579l73 145h111v-8l-100 -137h-84z" />
    <glyph glyph-name="abreve.ss04" horiz-adv-x="602" 
d="M277 -13q-67 0 -121 34t-85.5 93.5t-31.5 136.5q0 76 31.5 135.5t85.5 93.5t121 34q52 0 95.5 -21t74 -57.5t44.5 -84.5v-201q-14 -47 -44.5 -84t-74 -58t-95.5 -21zM283 68q49 0 86 23.5t58.5 64.5t21.5 95t-21.5 95t-58.5 64t-86 23q-45 0 -81.5 -23t-57 -64t-20.5 -95
t20.5 -95t57 -64.5t81.5 -23.5zM577 0q-61 0 -93 38t-32 101v45l15 67l-17 71v179h84v-356q0 -36 15 -50t42 -14l5 -11v-70h-19zM296 577q-42 0 -75.5 18.5t-52.5 52t-19 76.5h78q1 -32 20 -55t49 -23t49 23t20 55h78q0 -43 -19 -76.5t-52.5 -52t-75.5 -18.5z" />
    <glyph glyph-name="acircumflex.ss04" horiz-adv-x="602" 
d="M277 -13q-67 0 -121 34t-85.5 93.5t-31.5 136.5q0 76 31.5 135.5t85.5 93.5t121 34q52 0 95.5 -21t74 -57.5t44.5 -84.5v-201q-14 -47 -44.5 -84t-74 -58t-95.5 -21zM283 68q49 0 86 23.5t58.5 64.5t21.5 95t-21.5 95t-58.5 64t-86 23q-45 0 -81.5 -23t-57 -64t-20.5 -95
t20.5 -95t57 -64.5t81.5 -23.5zM577 0q-61 0 -93 38t-32 101v45l15 67l-17 71v179h84v-356q0 -36 15 -50t42 -14l5 -11v-70h-19zM140 579l102 145h109l102 -145h-90l-67 84l-67 -84h-89z" />
    <glyph glyph-name="adieresis.ss04" horiz-adv-x="602" 
d="M277 -13q-67 0 -121 34t-85.5 93.5t-31.5 136.5q0 76 31.5 135.5t85.5 93.5t121 34q52 0 95.5 -21t74 -57.5t44.5 -84.5v-201q-14 -47 -44.5 -84t-74 -58t-95.5 -21zM283 68q49 0 86 23.5t58.5 64.5t21.5 95t-21.5 95t-58.5 64t-86 23q-45 0 -81.5 -23t-57 -64t-20.5 -95
t20.5 -95t57 -64.5t81.5 -23.5zM577 0q-61 0 -93 38t-32 101v45l15 67l-17 71v179h84v-356q0 -36 15 -50t42 -14l5 -11v-70h-19zM390 594q-25 0 -42 17t-17 42t17 42.5t42 17.5t42.5 -17.5t17.5 -42.5t-17.5 -42t-42.5 -17zM203 594q-25 0 -42 17t-17 42t17 42.5t42 17.5
t42.5 -17.5t17.5 -42.5t-17.5 -42t-42.5 -17z" />
    <glyph glyph-name="agrave.ss04" horiz-adv-x="602" 
d="M277 -13q-67 0 -121 34t-85.5 93.5t-31.5 136.5q0 76 31.5 135.5t85.5 93.5t121 34q52 0 95.5 -21t74 -57.5t44.5 -84.5v-201q-14 -47 -44.5 -84t-74 -58t-95.5 -21zM283 68q49 0 86 23.5t58.5 64.5t21.5 95t-21.5 95t-58.5 64t-86 23q-45 0 -81.5 -23t-57 -64t-20.5 -95
t20.5 -95t57 -64.5t81.5 -23.5zM577 0q-61 0 -93 38t-32 101v45l15 67l-17 71v179h84v-356q0 -36 15 -50t42 -14l5 -11v-70h-19zM349 579h-84l-100 137v8h111z" />
    <glyph glyph-name="amacron.ss04" horiz-adv-x="602" 
d="M277 -13q-67 0 -121 34t-85.5 93.5t-31.5 136.5q0 76 31.5 135.5t85.5 93.5t121 34q52 0 95.5 -21t74 -57.5t44.5 -84.5v-201q-14 -47 -44.5 -84t-74 -58t-95.5 -21zM283 68q49 0 86 23.5t58.5 64.5t21.5 95t-21.5 95t-58.5 64t-86 23q-45 0 -81.5 -23t-57 -64t-20.5 -95
t20.5 -95t57 -64.5t81.5 -23.5zM577 0q-61 0 -93 38t-32 101v45l15 67l-17 71v179h84v-356q0 -36 15 -50t42 -14l5 -11v-70h-19zM140 611v82h313v-82h-313z" />
    <glyph glyph-name="aogonek.ss04" horiz-adv-x="602" 
d="M277 -13q-67 0 -121 34t-85.5 93.5t-31.5 136.5q0 76 31.5 135.5t85.5 93.5t121 34q52 0 95.5 -21t74 -57.5t44.5 -84.5v-201q-14 -47 -44.5 -84t-74 -58t-95.5 -21zM283 68q49 0 86 23.5t58.5 64.5t21.5 95t-21.5 95t-58.5 64t-86 23q-45 0 -81.5 -23t-57 -64t-20.5 -95
t20.5 -95t57 -64.5t81.5 -23.5zM577 0q-61 0 -93 38t-32 101v45l15 67l-17 71v179h84v-356q0 -36 15 -50t42 -14l5 -11v-70h-19zM551 -209q-50 0 -80.5 28.5t-30.5 75.5q0 44 27 79.5t81 64.5l48 -39q-38 -20 -59 -43t-21 -46q0 -20 13.5 -33t35.5 -13q14 0 26 4l5 -11v-62
q-13 -2 -23.5 -3.5t-21.5 -1.5z" />
    <glyph glyph-name="aring.ss04" horiz-adv-x="602" 
d="M277 -13q-67 0 -121 34t-85.5 93.5t-31.5 136.5q0 76 31.5 135.5t85.5 93.5t121 34q52 0 95.5 -21t74 -57.5t44.5 -84.5v-201q-14 -47 -44.5 -84t-74 -58t-95.5 -21zM283 68q49 0 86 23.5t58.5 64.5t21.5 95t-21.5 95t-58.5 64t-86 23q-45 0 -81.5 -23t-57 -64t-20.5 -95
t20.5 -95t57 -64.5t81.5 -23.5zM577 0q-61 0 -93 38t-32 101v45l15 67l-17 71v179h84v-356q0 -36 15 -50t42 -14l5 -11v-70h-19zM297 542q-34 0 -62 15.5t-44 43t-16 60.5q0 34 16 60.5t44 42t62 15.5q35 0 62 -15.5t43 -42t16 -60.5q0 -33 -16 -60.5t-43 -43t-62 -15.5z
M297 608q23 0 38 15.5t15 37.5t-15 37.5t-38 15.5t-38.5 -15.5t-15.5 -37.5t15.5 -37.5t38.5 -15.5z" />
    <glyph glyph-name="atilde.ss04" horiz-adv-x="602" 
d="M277 -13q-67 0 -121 34t-85.5 93.5t-31.5 136.5q0 76 31.5 135.5t85.5 93.5t121 34q52 0 95.5 -21t74 -57.5t44.5 -84.5v-201q-14 -47 -44.5 -84t-74 -58t-95.5 -21zM283 68q49 0 86 23.5t58.5 64.5t21.5 95t-21.5 95t-58.5 64t-86 23q-45 0 -81.5 -23t-57 -64t-20.5 -95
t20.5 -95t57 -64.5t81.5 -23.5zM577 0q-61 0 -93 38t-32 101v45l15 67l-17 71v179h84v-356q0 -36 15 -50t42 -14l5 -11v-70h-19zM365 587q-22 0 -39 8t-32 19t-29.5 19t-29.5 8q-17 0 -27.5 -15t-10.5 -38h-71q0 57 28.5 93t74.5 36q21 0 38.5 -8t32.5 -19t29 -19t29 -8
q18 0 28 15t10 38h71q0 -57 -28 -93t-74 -36z" />
    <glyph glyph-name="g.ss04" horiz-adv-x="602" 
d="M114 -200v70l5 11h232q53 0 76 22.5t23 76.5v208l17 71l-17 71v171h84v-529q0 -79 -46.5 -125.5t-118.5 -46.5h-255zM277 -13q-67 0 -121 34t-85.5 93.5t-31.5 136.5q0 76 31.5 135.5t85.5 93.5t121 34q52 0 95.5 -21t74 -57.5t44.5 -84.5v-201q-14 -47 -44.5 -84
t-74 -58t-95.5 -21zM283 68q49 0 86 23.5t58.5 64.5t21.5 95t-21.5 95t-58.5 64t-86 23q-45 0 -81.5 -23t-57 -64t-20.5 -95t20.5 -95t57 -64.5t81.5 -23.5z" />
    <glyph glyph-name="gbreve.ss04" horiz-adv-x="602" 
d="M114 -200v70l5 11h232q53 0 76 22.5t23 76.5v208l17 71l-17 71v171h84v-529q0 -79 -46.5 -125.5t-118.5 -46.5h-255zM277 -13q-67 0 -121 34t-85.5 93.5t-31.5 136.5q0 76 31.5 135.5t85.5 93.5t121 34q52 0 95.5 -21t74 -57.5t44.5 -84.5v-201q-14 -47 -44.5 -84
t-74 -58t-95.5 -21zM283 68q49 0 86 23.5t58.5 64.5t21.5 95t-21.5 95t-58.5 64t-86 23q-45 0 -81.5 -23t-57 -64t-20.5 -95t20.5 -95t57 -64.5t81.5 -23.5zM296 577q-42 0 -75.5 18.5t-52.5 52t-19 76.5h78q1 -32 20 -55t49 -23t49 23t20 55h78q0 -43 -19 -76.5t-52.5 -52
t-75.5 -18.5z" />
    <glyph glyph-name="uni0123.ss04" horiz-adv-x="602" 
d="M114 -200v70l5 11h232q53 0 76 22.5t23 76.5v208l17 71l-17 71v171h84v-529q0 -79 -46.5 -125.5t-118.5 -46.5h-255zM277 -13q-67 0 -121 34t-85.5 93.5t-31.5 136.5q0 76 31.5 135.5t85.5 93.5t121 34q52 0 95.5 -21t74 -57.5t44.5 -84.5v-201q-14 -47 -44.5 -84
t-74 -58t-95.5 -21zM283 68q49 0 86 23.5t58.5 64.5t21.5 95t-21.5 95t-58.5 64t-86 23q-45 0 -81.5 -23t-57 -64t-20.5 -95t20.5 -95t57 -64.5t81.5 -23.5zM344 768v-52q-24 -5 -37 -19.5t-13 -32.5q0 -16 4 -26l-34 -19q-3 11 -3 21q0 15 8.5 23t18 10t13.5 2q23 0 38 -15
t15 -37q0 -23 -15 -38.5t-38 -15.5q-29 0 -45.5 25t-16.5 56q0 22 10.5 47t33.5 45.5t61 25.5z" />
    <glyph glyph-name="gdotaccent.ss04" horiz-adv-x="602" 
d="M114 -200v70l5 11h232q53 0 76 22.5t23 76.5v208l17 71l-17 71v171h84v-529q0 -79 -46.5 -125.5t-118.5 -46.5h-255zM277 -13q-67 0 -121 34t-85.5 93.5t-31.5 136.5q0 76 31.5 135.5t85.5 93.5t121 34q52 0 95.5 -21t74 -57.5t44.5 -84.5v-201q-14 -47 -44.5 -84
t-74 -58t-95.5 -21zM283 68q49 0 86 23.5t58.5 64.5t21.5 95t-21.5 95t-58.5 64t-86 23q-45 0 -81.5 -23t-57 -64t-20.5 -95t20.5 -95t57 -64.5t81.5 -23.5zM296 594q-25 0 -42 17t-17 42t17 42.5t42 17.5t42.5 -17.5t17.5 -42.5t-17.5 -42t-42.5 -17z" />
    <glyph glyph-name="l.ss04" horiz-adv-x="232" 
d="M202 0q-39 0 -67.5 18t-45 51t-16.5 78v573l82 10l3 -8v-570q0 -37 14 -54t44 -17l5 -11v-70h-19z" />
    <glyph glyph-name="lacute.ss04" horiz-adv-x="232" 
d="M202 0q-39 0 -67.5 18t-45 51t-16.5 78v573l82 10l3 -8v-570q0 -37 14 -54t44 -17l5 -11v-70h-19zM74 769l73 145h111v-8l-100 -137h-84z" />
    <glyph glyph-name="lcaron.ss04" horiz-adv-x="232" 
d="M202 0q-39 0 -67.5 18t-45 51t-16.5 78v573l82 10l3 -8v-570q0 -37 14 -54t44 -17l5 -11v-70h-19zM200 537l20 184h89l-41 -184h-68z" />
    <glyph glyph-name="uni013C.ss04" horiz-adv-x="232" 
d="M202 0q-39 0 -67.5 18t-45 51t-16.5 78v573l82 10l3 -8v-570q0 -37 14 -54t44 -17l5 -11v-70h-19zM106 -232v52q23 5 36.5 19.5t13.5 33.5q0 16 -5 26l34 18q3 -10 3 -20q0 -16 -8 -23.5t-17.5 -10t-13.5 -2.5q-23 0 -38.5 15t-15.5 37q0 23 15.5 38.5t38.5 15.5
q29 0 45.5 -25t16.5 -56q0 -22 -10.5 -47t-33.5 -45t-61 -26z" />
    <glyph glyph-name="ldot.ss04" horiz-adv-x="289" 
d="M202 0q-39 0 -67.5 18t-45 51t-16.5 78v573l82 10l3 -8v-570q0 -37 14 -54t44 -17l5 -11v-70h-19zM260 314q-25 0 -42 17t-17 42t17 42.5t42 17.5t42.5 -17.5t17.5 -42.5t-17.5 -42t-42.5 -17z" />
    <glyph glyph-name="lslash.ss04" horiz-adv-x="262" 
d="M16 231v95l230 143v-95zM217 0q-39 0 -67.5 18t-45 51t-16.5 78v573l82 10l3 -8v-570q0 -37 14 -54t44 -17l5 -11v-70h-19z" />
    <glyph glyph-name="y.ss04" horiz-adv-x="577" 
d="M106 -200v70l5 11h215q54 0 77.5 22.5t23.5 76.5v161l24 -15q-14 -42 -43.5 -73.5t-70 -48.5t-87.5 -17q-54 0 -96 23t-66.5 68.5t-24.5 112.5v310h85v-287q0 -54 16.5 -86t44 -45.5t62.5 -13.5q39 0 73.5 19t57 56.5t22.5 92.5v264h85v-529q0 -79 -46 -125.5t-119 -46.5
h-238z" />
    <glyph glyph-name="yacute.ss04" horiz-adv-x="577" 
d="M106 -200v70l5 11h215q54 0 77.5 22.5t23.5 76.5v161l24 -15q-14 -42 -43.5 -73.5t-70 -48.5t-87.5 -17q-54 0 -96 23t-66.5 68.5t-24.5 112.5v310h85v-287q0 -54 16.5 -86t44 -45.5t62.5 -13.5q39 0 73.5 19t57 56.5t22.5 92.5v264h85v-529q0 -79 -46 -125.5t-119 -46.5
h-238zM232 579l73 145h111v-8l-100 -137h-84z" />
    <glyph glyph-name="ycircumflex.ss04" horiz-adv-x="577" 
d="M106 -200v70l5 11h215q54 0 77.5 22.5t23.5 76.5v161l24 -15q-14 -42 -43.5 -73.5t-70 -48.5t-87.5 -17q-54 0 -96 23t-66.5 68.5t-24.5 112.5v310h85v-287q0 -54 16.5 -86t44 -45.5t62.5 -13.5q39 0 73.5 19t57 56.5t22.5 92.5v264h85v-529q0 -79 -46 -125.5t-119 -46.5
h-238zM134 579l102 145h109l102 -145h-90l-67 84l-67 -84h-89z" />
    <glyph glyph-name="ydieresis.ss04" horiz-adv-x="577" 
d="M106 -200v70l5 11h215q54 0 77.5 22.5t23.5 76.5v161l24 -15q-14 -42 -43.5 -73.5t-70 -48.5t-87.5 -17q-54 0 -96 23t-66.5 68.5t-24.5 112.5v310h85v-287q0 -54 16.5 -86t44 -45.5t62.5 -13.5q39 0 73.5 19t57 56.5t22.5 92.5v264h85v-529q0 -79 -46 -125.5t-119 -46.5
h-238zM385 594q-25 0 -42 17t-17 42t17 42.5t42 17.5t42.5 -17.5t17.5 -42.5t-17.5 -42t-42.5 -17zM197 594q-25 0 -42 17t-17 42t17 42.5t42 17.5t42.5 -17.5t17.5 -42.5t-17.5 -42t-42.5 -17z" />
    <glyph glyph-name="ygrave.ss04" horiz-adv-x="577" 
d="M106 -200v70l5 11h215q54 0 77.5 22.5t23.5 76.5v161l24 -15q-14 -42 -43.5 -73.5t-70 -48.5t-87.5 -17q-54 0 -96 23t-66.5 68.5t-24.5 112.5v310h85v-287q0 -54 16.5 -86t44 -45.5t62.5 -13.5q39 0 73.5 19t57 56.5t22.5 92.5v264h85v-529q0 -79 -46 -125.5t-119 -46.5
h-238zM344 579h-84l-100 137v8h111z" />
    <glyph glyph-name="fi" unicode="&#xfb01;" horiz-adv-x="556" 
d="M110 0v566q0 71 41 112.5t106 41.5h58v-70l-5 -11h-36q-42 0 -60.5 -17.5t-18.5 -60.5v-561h-85zM24 421v80h291v-80h-291zM402 0v501h85v-501h-85zM445 594q-25 0 -42 17t-17 42t17 42.5t42 17.5t42.5 -17.5t17.5 -42.5t-17.5 -42t-42.5 -17z" />
    <glyph glyph-name="fl" unicode="&#xfb02;" horiz-adv-x="566" 
d="M110 0v566q0 71 41 112.5t106 41.5h58v-70l-5 -11h-36q-42 0 -60.5 -17.5t-18.5 -60.5v-561h-85zM24 421v80h291v-80h-291zM407 0v720l82 10l3 -8v-722h-85z" />
    <glyph glyph-name="ordfeminine" unicode="&#xaa;" horiz-adv-x="389" 
d="M160 341q-54 0 -90 30.5t-36 78.5t33.5 77.5t95.5 33.5l137 12v-61l-125 -10q-34 -3 -51 -15.5t-17 -33.5t18 -34t46 -13q29 0 53 13.5t38 36.5t14 50v58q0 36 -24.5 60t-61.5 24q-31 0 -51.5 -15.5t-28.5 -40.5h-8l-61 17q15 49 55 76t94 27q73 0 114 -42.5t41 -121.5
v-198h-64v102l25 -8q-13 -45 -53.5 -74t-92.5 -29z" />
    <glyph glyph-name="ordmasculine" unicode="&#xba;" horiz-adv-x="432" 
d="M216 340q-51 0 -91.5 23.5t-63 65.5t-22.5 97t22.5 97t62.5 65.5t92 23.5q53 0 92.5 -24t62 -65.5t22.5 -96.5t-22.5 -97t-62.5 -65.5t-92 -23.5zM216 406q48 0 77 33t29 87t-29 87t-77 33q-47 0 -76.5 -33t-29.5 -87t29.5 -87t76.5 -33z" />
    <glyph glyph-name="uni0621" unicode="&#x621;" horiz-adv-x="505" 
d="M156 47q-32 49 -32 94q0 38 20 70t52 60t69.5 52t72.5 46h7l42 -67q-54 -33 -89.5 -59t-55 -47.5t-28 -38t-8.5 -29.5q0 -18 11.5 -32t31.5 -14zM52 0l-3 7l41 75h3q30 0 57 -3.5l27 -3.5l16 7h263v-7l-23 -75h-381z" />
    <glyph glyph-name="uni0627" unicode="&#x627;" horiz-adv-x="241" 
d="M73 0v746l82 10l3 -8v-501q0 -41 2.5 -82t5 -75.5t5 -55l2.5 -20.5l-15 -14h-85z" />
    <glyph glyph-name="uni0627.fina" horiz-adv-x="244" 
d="M158 0l-85 1v745l82 10l3 -8v-748zM73 0v82h171v-82h-171zM244 0v82q12 0 16 -11t4 -29t-4 -30t-16 -12z" />
    <glyph glyph-name="uni0627.short" horiz-adv-x="241" 
d="M73 0v657l82 11l3 -8v-413q0 -41 2.5 -82t5 -75.5t5 -55l2.5 -20.5l-15 -14h-85z" />
    <glyph glyph-name="uni0627.short.fina" horiz-adv-x="244" 
d="M158 0l-85 1v656l82 11l3 -8v-660zM73 0v82h171v-82h-171zM244 0v82q12 0 16 -11t4 -29t-4 -30t-16 -12z" />
    <glyph glyph-name="uni066E" unicode="&#x66e;" horiz-adv-x="919" 
d="M467 0q-75 0 -151.5 5.5t-144.5 21.5t-117 47l40 64h11q50 -28 138 -42t224 -14h307l-1 -82h-306zM774 0l3 42l-3 32.5t-6 83.5t-3 107v87l82 10l3 -8v-107q0 -41 2.5 -82t5 -75.5t5 -55l2.5 -20.5l-15 -14h-76zM679 0v82h106v-82h-106zM679 0q-11 0 -15.5 12t-4.5 30
t4.5 29t15.5 11v-82z" />
    <glyph glyph-name="uni066E.fina" horiz-adv-x="936" 
d="M819 0v82h117v-82h-117zM936 0v82q12 0 16 -11t4 -29t-4 -30t-16 -12zM467 0q-75 0 -151.5 5.5t-144.5 21.5t-117 47l40 64h11q50 -28 138 -42t224 -14h307l-1 -82h-306zM774 0l3 42l-3 32.5t-6 83.5t-3 107v87l82 10l3 -8v-107q0 -41 2.5 -82t5 -75.5t5 -55l2.5 -20.5
l-15 -14h-76zM679 0v82h106v-82h-106zM679 0q-11 0 -15.5 12t-4.5 30t4.5 29t15.5 11v-82z" />
    <glyph glyph-name="uni066E.medi" horiz-adv-x="257" 
d="M147 0v82h110v-82h-110zM257 0v82q12 0 16 -11t4 -29t-4 -30t-16 -12zM95 0l3 42l-3 32.5t-6 83.5t-3 107v87l82 10l3 -8v-107q0 -41 2.5 -82t5 -75.5t5 -55l2.5 -20.5l-15 -14h-76zM0 0v82h106v-82h-106zM0 0q-11 0 -15.5 12t-4.5 30t4.5 29t15.5 11v-82z" />
    <glyph glyph-name="uni066E.medi.high" horiz-adv-x="257" 
d="M147 0v82h110v-82h-110zM257 0v82q12 0 16 -11t4 -29t-4 -30t-16 -12zM86 337v110l82 10l3 -8v-112h-85zM95 0l3 42l-3 32.5t-6 83.5t-3 107v87l82 10l3 -8v-107q0 -41 2.5 -82t5 -75.5t5 -55l2.5 -20.5l-15 -14h-76zM0 0v82h106v-82h-106zM0 0q-11 0 -15.5 12t-4.5 30
t4.5 29t15.5 11v-82z" />
    <glyph glyph-name="uni066E.init" horiz-adv-x="240" 
d="M95 0l3 42l-3 32.5t-6 83.5t-3 107v87l82 10l3 -8v-107q0 -41 2.5 -82t5 -75.5t5 -55l2.5 -20.5l-15 -14h-76zM0 0v82h106v-82h-106zM0 0q-11 0 -15.5 12t-4.5 30t4.5 29t15.5 11v-82z" />
    <glyph glyph-name="uni066E.init.high" horiz-adv-x="240" 
d="M86 337v110l82 10l3 -8v-112h-85zM95 0l3 42l-3 32.5t-6 83.5t-3 107v87l82 10l3 -8v-107q0 -41 2.5 -82t5 -75.5t5 -55l2.5 -20.5l-15 -14h-76zM0 0v82h106v-82h-106zM0 0q-11 0 -15.5 12t-4.5 30t4.5 29t15.5 11v-82z" />
    <glyph glyph-name="uni062D" unicode="&#x62d;" horiz-adv-x="717" 
d="M586 6q-64 16 -130.5 46t-129.5 71.5t-119 91.5t-101 105l62 49h7q32 -39 79.5 -84t107 -87t128 -74.5t141.5 -47.5zM279 0v82h35q27 0 52 -1.5t41 -3.5l16 -2l94 7h140v-7l-23 -75h-355zM282 -200q-77 0 -131 20t-82.5 54t-28.5 76q0 66 65.5 99t173.5 33v-82
q-75 0 -117 -14t-49 -38q7 -29 52.5 -47.5t114.5 -18.5q16 0 37 1t44 3l14 -71v-10q-26 -3 -50.5 -4t-42.5 -1z" />
    <glyph glyph-name="uni062D.fina" horiz-adv-x="684" 
d="M598 0v82h86v-82h-86zM684 0v82q12 0 16 -11t4 -29t-4 -30t-16 -12zM586 6q-64 16 -130.5 46t-129.5 71.5t-119 91.5t-101 105l62 49h7q32 -39 79.5 -84t107 -87t128 -74.5t141.5 -47.5zM279 0v82h35q27 0 52 -1.5t41 -3.5l16 -2l94 7h140v-7l-23 -75h-355zM282 -200
q-77 0 -131 20t-82.5 54t-28.5 76q0 66 65.5 99t173.5 33v-82q-75 0 -117 -14t-49 -38q7 -29 52.5 -47.5t114.5 -18.5q16 0 37 1t44 3l14 -71v-10q-26 -3 -50.5 -4t-42.5 -1z" />
    <glyph glyph-name="uni062D.medi" horiz-adv-x="632" 
d="M546 0v82h86v-82h-86zM632 0v82q12 0 16 -11t4 -29t-4 -30t-16 -12zM535 6q-64 16 -130.5 46t-129.5 71.5t-119.5 91.5t-100.5 105l61 49h7q32 -39 79.5 -84t107.5 -87t128 -74.5t141 -47.5zM0 0v82h255q28 0 54.5 -1.5t44.5 -3.5l18 -2l94 7h140v-7l-23 -75h-583zM0 0
q-11 0 -15.5 12t-4.5 30t4.5 29t15.5 11v-82z" />
    <glyph glyph-name="uni062D.init" horiz-adv-x="665" 
d="M535 6q-64 16 -130.5 46t-129.5 71.5t-119.5 91.5t-100.5 105l61 49h7q32 -39 79.5 -84t107.5 -87t128 -74.5t141 -47.5zM0 0v82h255q28 0 54.5 -1.5t44.5 -3.5l18 -2l94 7h140v-7l-23 -75h-583zM0 0q-11 0 -15.5 12t-4.5 30t4.5 29t15.5 11v-82z" />
    <glyph glyph-name="uni062F" unicode="&#x62f;" horiz-adv-x="554" 
d="M407 102q0 26 -14.5 47.5t-39.5 34t-57 12.5h-149v11l9 71h140q53 0 98 -22.5t71.5 -62.5t26.5 -91h-85zM27 0l-3 7l41 75h126v-82h-164zM65 0v82h251q25 0 49.5 -1.5t40.5 -3.5l16 -2v-75h-357zM114 196l-4 7l41 75h118v-82h-155zM416 0q-2 17 -5.5 41.5t-3.5 60.5h85
q0 -32 3 -53l5 -35l-15 -14h-69z" />
    <glyph glyph-name="uni062F.fina" horiz-adv-x="578" 
d="M459 0v82h119v-82h-119zM578 0v82q12 0 16 -11t4 -29t-4 -30t-16 -12zM407 102q0 26 -14.5 47.5t-39.5 34t-57 12.5h-149v11l9 71h140q53 0 98 -22.5t71.5 -62.5t26.5 -91h-85zM27 0l-3 7l41 75h126v-82h-164zM65 0v82h251q25 0 49.5 -1.5t40.5 -3.5l16 -2v-75h-357z
M114 196l-4 7l41 75h118v-82h-155zM416 0q-2 17 -5.5 41.5t-3.5 60.5h85q0 -32 3 -53l5 -35l-15 -14h-69z" />
    <glyph glyph-name="uni0631" unicode="&#x631;" horiz-adv-x="258" 
d="M0 -200v82q63 0 90.5 36.5t27.5 126.5v307l82 10l3 -8v-309q0 -75 -20 -130t-65 -85t-118 -30z" />
    <glyph glyph-name="uni0631.fina" horiz-adv-x="289" 
d="M182 0v82h107v-82h-107zM289 0v82q12 0 16 -11t4 -29t-4 -30t-16 -12zM0 -200v82q63 0 90.5 36.5t27.5 126.5v307l82 10l3 -8v-309q0 -75 -20 -130t-65 -85t-118 -30z" />
    <glyph glyph-name="uni0633" unicode="&#x633;" horiz-adv-x="1033" 
d="M281 -232q-110 0 -173.5 69t-63.5 191h83q0 -87 39.5 -132t114.5 -45q77 0 120 46t43 131h85q0 -81 -31.5 -139.5t-87 -89.5t-129.5 -31zM44 28v54l80 11l3 -8v-57h-83zM444 28v229l82 10l3 -8v-231h-85zM480 0v82h428v-82h-428zM670 0l3 42l-3 32.5t-6 83.5t-3 107v40
l83 10l3 -8v-60q0 -41 2.5 -82t5 -75.5t5 -55l2.5 -20.5l-15 -14h-77zM888 0l3 42l-3 32.5t-6 83.5t-3 107v87l82 10l3 -8v-107q0 -41 2.5 -82t5 -75.5t5 -55l2.5 -20.5l-15 -14h-76z" />
    <glyph glyph-name="uni0633.fina" horiz-adv-x="1050" 
d="M960 0v82h90v-82h-90zM1050 0v82q12 0 16 -11t4 -29t-4 -30t-16 -12zM281 -232q-110 0 -173.5 69t-63.5 191h83q0 -87 39.5 -132t114.5 -45q77 0 120 46t43 131h85q0 -81 -31.5 -139.5t-87 -89.5t-129.5 -31zM44 28v54l80 11l3 -8v-57h-83zM444 28v229l82 10l3 -8v-231
h-85zM480 0v82h428v-82h-428zM670 0l3 42l-3 32.5t-6 83.5t-3 107v40l83 10l3 -8v-60q0 -41 2.5 -82t5 -75.5t5 -55l2.5 -20.5l-15 -14h-77zM888 0l3 42l-3 32.5t-6 83.5t-3 107v87l82 10l3 -8v-107q0 -41 2.5 -82t5 -75.5t5 -55l2.5 -20.5l-15 -14h-76z" />
    <glyph glyph-name="uni0633.medi" horiz-adv-x="692" 
d="M591 0v82h101v-82h-101zM692 0v82q12 0 16 -11t4 -29t-4 -30t-16 -12zM0 0v82h550v-82h-550zM312 0l3 42l-3 32.5t-6 83.5t-3 107v40l82 10l3 -8v-60q0 -41 2.5 -82t5 -75.5t5 -55l2.5 -20.5l-15 -14h-76zM95 0l3 42l-3 31t-6 78.5t-3 96.5v9l82 10l3 -8v-24
q0 -36 2.5 -74.5t5 -72t5 -54l2.5 -20.5l-15 -14h-76zM530 0l3 42l-3 32.5t-6 83.5t-3 107v87l82 10l3 -8v-107q0 -41 2.5 -82t5 -75.5t5 -55l2.5 -20.5l-15 -14h-76zM0 0q-11 0 -15.5 12t-4.5 30t4.5 29t15.5 11v-82z" />
    <glyph glyph-name="uni0633.init" horiz-adv-x="675" 
d="M0 0v82h550v-82h-550zM312 0l3 42l-3 32.5t-6 83.5t-3 107v40l82 10l3 -8v-60q0 -41 2.5 -82t5 -75.5t5 -55l2.5 -20.5l-15 -14h-76zM95 0l3 42l-3 31t-6 78.5t-3 96.5v9l82 10l3 -8v-24q0 -36 2.5 -74.5t5 -72t5 -54l2.5 -20.5l-15 -14h-76zM530 0l3 42l-3 32.5t-6 83.5
t-3 107v87l82 10l3 -8v-107q0 -41 2.5 -82t5 -75.5t5 -55l2.5 -20.5l-15 -14h-76zM0 0q-11 0 -15.5 12t-4.5 30t4.5 29t15.5 11v-82z" />
    <glyph glyph-name="uni0635" unicode="&#x635;" horiz-adv-x="1217" 
d="M444 29v339l82 10l3 -8v-341h-85zM498 196v82h381v-82h-381zM498 0v82h381v-82h-381zM281 -231q-110 0 -173.5 69t-63.5 191h83q0 -87 39.5 -132.5t114.5 -45.5q77 0 120 46.5t43 131.5h85q0 -81 -31.5 -139.5t-87.5 -89.5t-129 -31zM44 29v54l80 11l3 -8v-57h-83z
M444 29v323l82 10l3 -8v-325h-85zM1070 102q0 26 -14.5 47.5t-39.5 34t-57 12.5h-149v11l9 71h140q53 0 98 -22.5t71.5 -62.5t26.5 -91h-85zM690 0l-3 7l41 75h126v-82h-164zM728 0v82h251q25 0 49.5 -1.5t40.5 -3.5l16 -2v-75h-357zM777 196l-4 7l41 75h118v-82h-155z
M1079 0q-2 17 -5.5 41.5t-3.5 60.5h85q0 -32 3 -53l5 -35l-15 -14h-69z" />
    <glyph glyph-name="uni0635.fina" horiz-adv-x="1241" 
d="M1079 0v82h162v-82h-162zM1241 0v82q12 0 16 -11t4 -29t-4 -30t-16 -12zM444 29v339l82 10l3 -8v-341h-85zM498 196v82h381v-82h-381zM498 0v82h381v-82h-381zM281 -231q-110 0 -173.5 69t-63.5 191h83q0 -87 39.5 -132.5t114.5 -45.5q77 0 120 46.5t43 131.5h85
q0 -81 -31.5 -139.5t-87 -89.5t-129.5 -31zM44 29v54l80 11l3 -8v-57h-83zM444 29v323l82 10l3 -8v-325h-85zM1070 102q0 26 -14.5 47.5t-39.5 34t-57 12.5h-149v11l9 71h140q53 0 98 -22.5t71.5 -62.5t26.5 -91h-85zM690 0l-3 7l41 75h126v-82h-164zM728 0v82h251
q25 0 49.5 -1.5t40.5 -3.5l16 -2v-75h-357zM777 196l-4 7l41 75h118v-82h-155zM1079 0q-2 17 -5.5 41.5t-3.5 60.5h85q0 -32 3 -53l5 -35l-15 -14h-69z" />
    <glyph glyph-name="uni0635.medi" horiz-adv-x="883" 
d="M719 0v82h164v-82h-164zM883 0v82q12 0 16 -11t4 -29t-4 -30t-16 -12zM86 0v368l82 10l3 -8v-370h-85zM0 0v82h171v-82h-171zM0 0q-11 0 -15.5 12t-4.5 30t4.5 29t15.5 11v-82zM140 196v82h381v-82h-381zM140 0v82h381v-82h-381zM712 102q0 26 -14.5 47.5t-39.5 34
t-57 12.5h-149v11l9 71h140q53 0 97.5 -22.5t71.5 -62.5t27 -91h-85zM332 0l-3 7l41 75h126v-82h-164zM370 0v82h251q25 0 49.5 -1.5t40.5 -3.5l16 -2v-75h-357zM419 196l-4 7l41 75h118v-82h-155zM721 0q-2 17 -5.5 41.5t-3.5 60.5h85q0 -32 3 -53l5 -35l-15 -14h-69z" />
    <glyph glyph-name="uni0635.init" horiz-adv-x="859" 
d="M86 0v368l82 10l3 -8v-370h-85zM0 0v82h171v-82h-171zM0 0q-11 0 -15.5 12t-4.5 30t4.5 29t15.5 11v-82zM140 196v82h381v-82h-381zM140 0v82h381v-82h-381zM712 102q0 26 -14.5 47.5t-39.5 34t-57 12.5h-149v11l9 71h140q53 0 97.5 -22.5t71.5 -62.5t27 -91h-85zM332 0
l-3 7l41 75h126v-82h-164zM370 0v82h251q25 0 49.5 -1.5t40.5 -3.5l16 -2v-75h-357zM419 196l-4 7l41 75h118v-82h-155zM721 0q-2 17 -5.5 41.5t-3.5 60.5h85q0 -32 3 -53l5 -35l-15 -14h-69z" />
    <glyph glyph-name="uni0637" unicode="&#x637;" horiz-adv-x="894" 
d="M121 0v746l82 10l3 -8v-748h-85zM42 0l-3 7l41 75h126v-82h-164zM175 196v82h381v-82h-381zM175 0v82h381v-82h-381zM747 102q0 26 -14.5 47.5t-39.5 34t-57 12.5h-149v11l9 71h140q53 0 98 -22.5t71.5 -62.5t26.5 -91h-85zM368 0l-4 7l41 75h126v-82h-163zM405 0v82h251
q25 0 49.5 -1.5t40.5 -3.5l16 -2v-75h-357zM454 196l-4 7l41 75h118v-82h-155zM756 0q-2 17 -5.5 41.5t-3.5 60.5h85q0 -32 3 -53l5 -35l-15 -14h-69z" />
    <glyph glyph-name="uni0637.fina" horiz-adv-x="918" 
d="M776 0v82h142v-82h-142zM918 0v82q12 0 16 -11t4 -29t-4 -30t-16 -12zM121 0v746l82 10l3 -8v-748h-85zM42 0l-3 7l41 75h126v-82h-164zM175 196v82h381v-82h-381zM175 0v82h381v-82h-381zM747 102q0 26 -14.5 47.5t-39.5 34t-57 12.5h-149v11l9 71h140q53 0 98 -22.5
t71.5 -62.5t26.5 -91h-85zM368 0l-4 7l41 75h126v-82h-163zM405 0v82h251q25 0 49.5 -1.5t40.5 -3.5l16 -2v-75h-357zM454 196l-4 7l41 75h118v-82h-155zM756 0q-2 17 -5.5 41.5t-3.5 60.5h85q0 -32 3 -53l5 -35l-15 -14h-69z" />
    <glyph glyph-name="uni0637.medi" horiz-adv-x="883" 
d="M741 0v82h142v-82h-142zM883 0v82q12 0 16 -11t4 -29t-4 -30t-16 -12zM0 0v82h85v-82h-85zM0 0q-11 0 -15.5 12t-4.5 30t4.5 29t15.5 11v-82zM86 0v746l82 10l3 -8v-748h-85zM7 0l-3 7l41 75h126v-82h-164zM140 196v82h381v-82h-381zM140 0v82h381v-82h-381zM712 102
q0 26 -14.5 47.5t-39.5 34t-57 12.5h-149v11l9 71h140q53 0 97.5 -22.5t71.5 -62.5t27 -91h-85zM332 0l-3 7l41 75h126v-82h-164zM370 0v82h251q25 0 49.5 -1.5t40.5 -3.5l16 -2v-75h-357zM419 196l-4 7l41 75h118v-82h-155zM721 0q-2 17 -5.5 41.5t-3.5 60.5h85
q0 -32 3 -53l5 -35l-15 -14h-69z" />
    <glyph glyph-name="uni0637.init" horiz-adv-x="859" 
d="M0 0v82h85v-82h-85zM0 0q-11 0 -15.5 12t-4.5 30t4.5 29t15.5 11v-82zM86 0v746l82 10l3 -8v-748h-85zM7 0l-3 7l41 75h126v-82h-164zM140 196v82h381v-82h-381zM140 0v82h381v-82h-381zM712 102q0 26 -14.5 47.5t-39.5 34t-57 12.5h-149v11l9 71h140q53 0 97.5 -22.5
t71.5 -62.5t27 -91h-85zM332 0l-3 7l41 75h126v-82h-164zM370 0v82h251q25 0 49.5 -1.5t40.5 -3.5l16 -2v-75h-357zM419 196l-4 7l41 75h118v-82h-155zM721 0q-2 17 -5.5 41.5t-3.5 60.5h85q0 -32 3 -53l5 -35l-15 -14h-69z" />
    <glyph glyph-name="uni0639" unicode="&#x639;" horiz-adv-x="543" 
d="M155 47q-32 49 -32 94q0 38 20 70t52 60t69.5 52t72.5 46h7l43 -67q-54 -33 -89.5 -59t-55 -47.5t-28 -38t-8.5 -29.5q0 -18 11.5 -32t31.5 -14zM191 0v82h288v-7l-24 -75h-264zM282 -200q-77 0 -131 20t-82.5 54t-28.5 76q0 66 65.5 99t173.5 33v-82q-75 0 -117 -14
t-49 -38q7 -29 52.5 -47.5t114.5 -18.5q23 0 53 2t59 4l14 -69v-10q-20 -3 -43 -5.5t-44 -3t-37 -0.5z" />
    <glyph glyph-name="uni0639.fina" horiz-adv-x="553" 
d="M283 -200q-78 0 -132 20t-82.5 54t-28.5 76q0 41 25 65.5t65 41t83 30.5q36 11 69.5 24t60.5 30t43.5 41t16.5 57q0 34 -22 51t-71 17q-39 0 -78 -10t-71 -26l1 -13q37 -21 63.5 -49.5t43.5 -51.5q19 -24 33.5 -39t28.5 -22.5t33 -10.5t47 -3h142v-82h-142q-62 0 -99 15
t-61 39.5t-45 52.5q-24 33 -52 61.5t-75 41.5l-6 99l3 8q45 32 107.5 52.5t123.5 20.5q80 0 130 -37.5t50 -114.5q0 -53 -24 -91t-62 -64t-82.5 -43.5t-85.5 -30.5q-30 -10 -55 -19.5t-42 -19.5t-22 -25q9 -27 54 -45t114 -18q21 0 51 2t59 4l14 -69v-10q-20 -3 -43 -5.5
t-44 -3t-36 -0.5zM553 0v82q12 0 16 -11t4 -29t-4 -30t-16 -12z" />
    <glyph glyph-name="uni0639.medi" horiz-adv-x="524" 
d="M0 0v82h123q49 0 94 14t80.5 38t55.5 53t20 58t-23.5 45.5t-72.5 16.5q-36 0 -74.5 -10t-71.5 -26l1 -13q37 -21 63.5 -49.5t44.5 -51.5q19 -24 33 -39t28.5 -22.5t33.5 -10.5t46 -3h143v-82h-143q-62 0 -99 15t-60.5 39.5t-44.5 52.5q-23 31 -51.5 60.5t-75.5 42.5
l-6 99l3 8q44 32 106.5 52.5t123.5 20.5q81 0 131 -37.5t50 -107.5q0 -53 -29 -98t-78 -78t-108 -51t-120 -18h-123zM0 0q-11 0 -15.5 12t-4.5 30t4.5 29t15.5 11v-82zM524 0v82q12 0 16 -11t4 -29t-4 -30t-16 -12z" />
    <glyph glyph-name="uni0639.init" horiz-adv-x="484" 
d="M97 47q-32 49 -32 94q0 38 20 70t52 60t69.5 52t72.5 46h7l42 -67q-54 -33 -89 -59t-55 -47.5t-28 -38t-8 -29.5q0 -18 11.5 -32t30.5 -14zM0 0v82h6q24 0 47.5 -1.5t39 -3.5l15.5 -2l24 7h288v-7l-23 -75h-397zM0 0q-11 0 -15.5 12t-4.5 30t4.5 29t15.5 11v-82z" />
    <glyph glyph-name="uni06A1" unicode="&#x6a1;" horiz-adv-x="963" 
d="M467 0q-75 0 -151.5 5.5t-144.5 21.5t-117 47l40 64h11q50 -28 138 -42t224 -14h275q23 0 46 -1t38 -3l15 -2l-21 -3v7.5v7.5q-1 102 -30 158.5t-78 56.5q-24 0 -46 -13.5t-35 -39.5t-13 -62q0 -50 30.5 -78t91.5 -28v-61q-74 0 -119.5 24.5t-66.5 64.5t-21 86
q0 55 24.5 97.5t66 67t90.5 24.5q62 0 104.5 -39t64.5 -106t22 -154q1 -22 2 -42.5t2 -32.5l-9 -11h-433z" />
    <glyph glyph-name="uni06A1.fina" horiz-adv-x="991" 
d="M874 0v82h117v-82h-117zM991 0v82q12 0 16 -11t4 -29t-4 -30t-16 -12zM467 0q-75 0 -151.5 5.5t-144.5 21.5t-117 47l40 64h11q50 -28 138 -42t224 -14h275q23 0 46 -1t38 -3l15 -2l-21 -3v7.5v7.5q-1 102 -30 158.5t-78 56.5q-24 0 -46 -13.5t-35 -39.5t-13 -62
q0 -50 30.5 -78t91.5 -28v-61q-74 0 -119.5 24.5t-66.5 64.5t-21 86q0 55 24.5 97.5t66 67t90.5 24.5q62 0 104.5 -39t64.5 -106t22 -154q1 -22 2 -42.5t2 -32.5l-9 -11h-433z" />
    <glyph glyph-name="uni06A1.medi" horiz-adv-x="515" 
d="M387 0v82h128v-82h-128zM515 0v82q12 0 16 -11t4 -29t-4 -30t-16 -12zM0 0v82h265q23 0 46 -1t38 -3l15 -2l-21 -3v7.5v7.5q-1 102 -30 158.5t-78 56.5q-24 0 -46 -13.5t-35 -39.5t-13 -62q0 -50 30.5 -78t91.5 -28v-61q-73 0 -119 24.5t-67 64.5t-21 86q0 55 24.5 97.5
t66 67t90.5 24.5q62 0 105 -39t65 -106t22 -154q0 -22 1 -42.5t2 -32.5l-8 -11h-424zM0 0q-11 0 -15.5 12t-4.5 30t4.5 29t15.5 11v-82z" />
    <glyph glyph-name="uni06A1.init" horiz-adv-x="486" 
d="M0 0v82h265q23 0 46 -1t38 -3l15 -2l-21 -3v7.5v7.5q-1 102 -30 158.5t-78 56.5q-24 0 -46 -13.5t-35 -39.5t-13 -62q0 -50 30.5 -78t91.5 -28v-61q-73 0 -119 24.5t-67 64.5t-21 86q0 55 24.5 97.5t66 67t90.5 24.5q62 0 105 -39t65 -106t22 -154q0 -22 1 -42.5t2 -32.5
l-8 -11h-424zM0 0q-11 0 -15.5 12t-4.5 30t4.5 29t15.5 11v-82z" />
    <glyph glyph-name="uni066F" unicode="&#x66f;" horiz-adv-x="622" 
d="M304 -231q-123 0 -191.5 69t-68.5 191h83q0 -88 44.5 -133t131.5 -45q62 0 102 24.5t58.5 76.5t18.5 134h86q0 -52 -10.5 -107t-38 -103t-79 -77.5t-136.5 -29.5zM44 29v54l80 11l3 -8v-57h-83zM390 0q-69 0 -112 27.5t-63 71t-20 91.5q0 58 24.5 102t66 68.5t90.5 24.5
q62 0 105 -39t65 -106t22 -154h-86q0 101 -29.5 159t-79.5 58q-24 0 -45 -13.5t-34.5 -39.5t-13.5 -62q0 -50 30.5 -78t92.5 -28q36 0 60.5 9t39.5 27l22 -66q-20 -22 -52.5 -37t-82.5 -15z" />
    <glyph glyph-name="uni066F.fina" horiz-adv-x="654" 
d="M390 0q-69 0 -112 27.5t-63 71t-20 91.5q0 58 24.5 102t66 68.5t90.5 24.5q62 0 105 -39t65 -106t22 -154h-86q0 101 -29.5 159t-79.5 58q-24 0 -45 -13.5t-34.5 -39.5t-13.5 -62q0 -50 30.5 -78t92.5 -28h251v-82h-264zM304 -231q-123 0 -191.5 69t-68.5 191h83
q0 -88 44.5 -133t131.5 -45q62 0 102 24.5t58.5 76.5t18.5 134h86q0 -52 -10.5 -107t-38 -103t-79 -77.5t-136.5 -29.5zM44 29v54l80 11l3 -8v-57h-83zM654 0v82q12 0 16 -11t4 -29t-4 -30t-16 -12z" />
    <glyph glyph-name="kafDotlessar" horiz-adv-x="827" 
d="M467 0q-75 0 -151.5 5.5t-144.5 21.5t-117 47l40 64h11q50 -28 138 -42t224 -14h214l-1 -82h-213zM672 303v443l82 10l3 -8v-445h-85zM681 0l3 42l-3 32.5t-6 83.5t-3 107v87l82 10l3 -8v-107q0 -41 2.5 -82t5 -75.5t5 -55l2.5 -20.5l-15 -14h-76zM586 0v82h106v-82h-106
zM586 0q-11 0 -15.5 12t-4.5 30t4.5 29t15.5 11v-82z" />
    <glyph glyph-name="kafDotlessar.fina" horiz-adv-x="852" 
d="M720 0v82h132v-82h-132zM852 0v82q12 0 16 -11t4 -29t-4 -30t-16 -12zM467 0q-75 0 -151.5 5.5t-144.5 21.5t-117 47l40 64h11q50 -28 138 -42t224 -14h214l-1 -82h-213zM672 303v443l82 10l3 -8v-445h-85zM681 0l3 42l-3 32.5t-6 83.5t-3 107v87l82 10l3 -8v-107
q0 -41 2.5 -82t5 -75.5t5 -55l2.5 -20.5l-15 -14h-76zM586 0v82h106v-82h-106zM586 0q-11 0 -15.5 12t-4.5 30t4.5 29t15.5 11v-82z" />
    <glyph glyph-name="uni0643.medi" horiz-adv-x="749" 
d="M632 0v82h117v-82h-117zM749 0v82q12 0 16 -11t4 -29t-4 -30t-16 -12zM110 236l-68 42l258 372h10l69 -42zM0 0v82h487q25 0 49.5 -1.5t40.5 -3.5l16 -2v-75h-593zM92 196l-50 82h391v-82h-341zM578 102q0 26 -14.5 47.5t-39.5 34t-57 12.5h-198v11l9 71h189
q53 0 97.5 -22.5t71.5 -62.5t27 -91h-85zM587 0q-2 17 -5.5 41.5t-3.5 60.5h85q0 -32 3 -53l5 -35l-15 -14h-69zM0 0q-11 0 -15.5 12t-4.5 30t4.5 29t15.5 11v-82z" />
    <glyph glyph-name="uni0643.init" horiz-adv-x="725" 
d="M110 236l-68 42l257 372h11l69 -42zM0 0v82h487q25 0 49.5 -1.5t40.5 -3.5l16 -2v-75h-593zM92 196l-50 82h391v-82h-341zM578 102q0 26 -14.5 47.5t-39.5 34t-57 12.5h-198v11l9 71h189q53 0 97.5 -22.5t71.5 -62.5t27 -91h-85zM587 0q-2 17 -5.5 41.5t-3.5 60.5h85
q0 -32 3 -53l5 -35l-15 -14h-69zM0 0q-11 0 -15.5 12t-4.5 30t4.5 29t15.5 11v-82z" />
    <glyph glyph-name="uni06A9" unicode="&#x6a9;" horiz-adv-x="834" 
d="M310 236l-69 42l258 372h11l69 -42zM467 0q-75 0 -151.5 5.5t-144.5 21.5t-117 47l40 64h11q50 -28 138 -42t224 -14h78v-82h-78zM545 0v82h50q25 0 49.5 -1.5t40.5 -3.5l16 -2v-75h-156zM686 102q0 26 -14.5 47.5t-39.5 34t-57 12.5h-107v11l9 71h98q53 0 98 -22.5
t71.5 -62.5t26.5 -91h-85zM695 0q-2 17 -5.5 41.5t-3.5 60.5h85q0 -32 3 -53l5 -35l-15 -14h-69zM292 196l-51 82h301v-82h-250z" />
    <glyph glyph-name="uni06A9.fina" horiz-adv-x="858" 
d="M749 0v82h109v-82h-109zM858 0v82q12 0 16 -11t4 -29t-4 -30t-16 -12zM310 236l-69 42l258 372h11l69 -42zM467 0q-75 0 -151.5 5.5t-144.5 21.5t-117 47l40 64h11q50 -28 138 -42t224 -14h78v-82h-78zM545 0v82h50q25 0 49.5 -1.5t40.5 -3.5l16 -2v-75h-156zM686 102
q0 26 -14.5 47.5t-39.5 34t-57 12.5h-107v11l9 71h98q53 0 98 -22.5t71.5 -62.5t26.5 -91h-85zM695 0q-2 17 -5.5 41.5t-3.5 60.5h85q0 -32 3 -53l5 -35l-15 -14h-69zM292 196l-51 82h301v-82h-250z" />
    <glyph glyph-name="uni06AA" unicode="&#x6aa;" horiz-adv-x="1110" 
d="M822 0v82h50q25 0 49.5 -1.5t40.5 -3.5l16 -2v-75h-156zM972 0q-2 17 -5.5 41.5t-3.5 60.5h85q0 -32 3 -53l5 -35l-15 -14h-69zM292 196l-51 82h577v-82h-526zM310 236l-69 42l160 230h11l65 -41zM467 0q-75 0 -151.5 5.5t-144.5 21.5t-117 47l40 64h11q50 -28 138 -42
t224 -14h355v-82h-355zM963 102q0 26 -14.5 47.5t-39.5 34t-57 12.5h-384v11l9 71h375q53 0 98 -22.5t71.5 -62.5t26.5 -91h-85z" />
    <glyph glyph-name="uni06AA.fina" horiz-adv-x="1135" 
d="M1017 0v82h118v-82h-118zM1135 0v82q12 0 16 -11t4 -29t-4 -30t-16 -12zM822 0v82h50q25 0 49.5 -1.5t40.5 -3.5l16 -2v-75h-156zM972 0q-2 17 -5.5 41.5t-3.5 60.5h85q0 -32 3 -53l5 -35l-15 -14h-69zM292 196l-51 82h577v-82h-526zM310 236l-69 42l160 230h11l65 -41z
M467 0q-75 0 -151.5 5.5t-144.5 21.5t-117 47l40 64h11q50 -28 138 -42t224 -14h355v-82h-355zM963 102q0 26 -14.5 47.5t-39.5 34t-57 12.5h-384v11l9 71h375q53 0 98 -22.5t71.5 -62.5t26.5 -91h-85z" />
    <glyph glyph-name="uni06AA.medi" horiz-adv-x="934" 
d="M818 0v82h116v-82h-116zM934 0v82q12 0 16 -11t4 -29t-4 -30t-16 -12zM763 102q0 26 -14.5 47.5t-39.5 34t-57 12.5h-383v11l9 71h374q54 0 98.5 -22.5t71 -62.5t26.5 -91h-85zM0 0v82h623v-82h-623zM110 236l-68 42l159 230h11l66 -41zM92 196l-50 82h577v-82h-527z
M623 0v82h49q25 0 49.5 -1.5t40.5 -3.5l16 -2v-75h-155zM773 0q-3 17 -6.5 41.5t-3.5 60.5h85q0 -32 3 -53t6 -35l-15 -14h-69zM0 0q-11 0 -15.5 12t-4.5 30t4.5 29t15.5 11v-82z" />
    <glyph glyph-name="uni06AA.init" horiz-adv-x="911" 
d="M763 102q0 26 -14.5 47.5t-39.5 34t-57 12.5h-383v11l9 71h374q54 0 98.5 -22.5t71 -62.5t26.5 -91h-85zM0 0v82h623v-82h-623zM110 236l-68 42l159 230h11l66 -41zM92 196l-50 82h577v-82h-527zM623 0v82h49q25 0 49.5 -1.5t40.5 -3.5l16 -2v-75h-155zM773 0
q-3 17 -6.5 41.5t-3.5 60.5h85q0 -32 3 -53t6 -35l-15 -14h-69zM0 0q-11 0 -15.5 12t-4.5 30t4.5 29t15.5 11v-82z" />
    <glyph glyph-name="uni0644" unicode="&#x644;" horiz-adv-x="583" 
d="M444 212v534l82 10l3 -8v-536h-85zM281 -231q-110 0 -173.5 69t-63.5 191h83q0 -87 39.5 -132.5t114.5 -45.5q77 0 120 46.5t43 131.5h85q0 -81 -31.5 -139.5t-87.5 -89.5t-129 -31zM44 29v54l80 11l3 -8v-57h-83zM444 29v323l82 10l3 -8v-325h-85z" />
    <glyph glyph-name="uni0644.fina" horiz-adv-x="615" 
d="M508 0v82h107v-82h-107zM615 0v82q12 0 16 -11t4 -29t-4 -30t-16 -12zM444 212v534l82 10l3 -8v-536h-85zM281 -231q-110 0 -173.5 69t-63.5 191h83q0 -87 39.5 -132.5t114.5 -45.5q77 0 120 46.5t43 131.5h85q0 -81 -31.5 -139.5t-87 -89.5t-129.5 -31zM44 29v54l80 11
l3 -8v-57h-83zM444 29v323l82 10l3 -8v-325h-85z" />
    <glyph glyph-name="uni0644.medi" horiz-adv-x="257" 
d="M141 0v82h116v-82h-116zM257 0v82q12 0 16 -11t4 -29t-4 -30t-16 -12zM86 0v746l82 10l3 -8v-734l-15 -14h-70zM0 0v82h131v-82h-131zM0 0q-11 0 -15.5 12t-4.5 30t4.5 29t15.5 11v-82z" />
    <glyph glyph-name="uni0644.init" horiz-adv-x="239" 
d="M86 0v746l82 10l3 -8v-734l-15 -14h-70zM0 0v82h131v-82h-131zM0 0q-11 0 -15.5 12t-4.5 30t4.5 29t15.5 11v-82z" />
    <glyph glyph-name="uni0645" unicode="&#x645;" horiz-adv-x="716" 
d="M52 0l-3 7l41 75h247v-82h-285zM462 -15q-38 0 -75.5 12t-73.5 34l47 69q26 -16 51 -24.5t51 -8.5q34 0 60 14t40.5 38.5t14.5 57.5q0 32 -13.5 57.5t-35.5 40.5t-50 15q-27 0 -49.5 -15.5t-35 -43t-12.5 -64.5q0 -28 6 -54t16 -45l-74 -40q-16 28 -24.5 65t-8.5 74
q0 68 26.5 113.5t69 68.5t86.5 23q49 0 90.5 -25t67.5 -69t26 -101q0 -59 -28 -102t-73.5 -66.5t-98.5 -23.5zM210 0v82h177v-82h-177zM210 0q-11 0 -15.5 12t-4.5 30t4.5 29t15.5 11v-82z" />
    <glyph glyph-name="uni0645.ss01" horiz-adv-x="571" 
d="M182 0v82h147q45 0 74 29.5t29 74.5q0 48 -27 76t-72 28q-44 0 -71 -30.5t-27 -82.5q0 -27 5.5 -52.5t16.5 -47.5l-76 -36q-16 32 -23.5 68t-7.5 68q0 64 26.5 107.5t68 65.5t88.5 22q48 0 90 -21.5t68 -63t26 -101.5q0 -51 -23.5 -93t-66 -67.5t-98.5 -25.5h-147z
M49 -290v213q0 72 33 115.5t100 43.5v-82q-25 0 -36.5 -16t-11.5 -61v-213h-85z" />
    <glyph glyph-name="uni0645.fina" horiz-adv-x="726" 
d="M536 0v82h190v-82h-190zM726 0v82q12 0 16 -11t4 -29t-4 -30t-16 -12zM52 0l-3 7l41 75h247v-82h-285zM462 -15q-38 0 -75.5 12t-73.5 34l47 69q26 -16 51 -24.5t51 -8.5q34 0 60 14t40.5 38.5t14.5 57.5q0 32 -13.5 57.5t-35.5 40.5t-50 15q-27 0 -49.5 -15.5t-35 -43
t-12.5 -64.5q0 -28 6 -54t16 -45l-74 -40q-16 28 -24.5 65t-8.5 74q0 68 26.5 113.5t69 68.5t86.5 23q49 0 90.5 -25t67.5 -69t26 -101q0 -59 -28 -102t-73.5 -66.5t-98.5 -23.5zM210 0v82h177v-82h-177zM210 0q-11 0 -15.5 12t-4.5 30t4.5 29t15.5 11v-82z" />
    <glyph glyph-name="uni0645.fina.ss01" horiz-adv-x="581" 
d="M581 0q-51 0 -95.5 17.5t-74.5 40.5l52 65q52 -41 118 -41v-82zM581 0v82q11 0 15.5 -11t4.5 -29t-4.5 -30t-15.5 -12zM182 0v82h147q45 0 74 29.5t29 74.5q0 48 -27 76t-72 28q-44 0 -71 -30.5t-27 -82.5q0 -27 5.5 -52.5t16.5 -47.5l-76 -36q-16 32 -23.5 68t-7.5 68
q0 64 26.5 107.5t68 65.5t88.5 22q48 0 90 -21.5t68 -63t26 -101.5q0 -51 -23.5 -93t-66 -67.5t-98.5 -25.5h-147zM49 -290v213q0 72 33 115.5t100 43.5v-82q-25 0 -36.5 -16t-11.5 -61v-213h-85z" />
    <glyph glyph-name="uni0645.medi" horiz-adv-x="537" 
d="M119 28q-15 28 -24 65t-9 74q0 68 27 113.5t69 68.5t87 23t87 -23t68.5 -68.5t26.5 -113.5q0 -37 -8.5 -74t-24.5 -65l-74 40q10 19 16 45t6 54q0 37 -12.5 64.5t-34.5 43t-50 15.5t-50.5 -15.5t-35 -43t-12.5 -64.5q0 -28 6 -54t17 -45zM0 0v82h174v-82h-174zM269 -31
q-37 0 -75 12t-74 34l46 69q27 -16 52 -24.5t51 -8.5t51.5 8.5t50.5 24.5l47 -69q-36 -22 -74 -34t-75 -12zM366 0v82h171v-82h-171zM0 0q-11 0 -15.5 12t-4.5 30t4.5 29t15.5 11v-82zM537 0v82q12 0 16 -11t4 -29t-4 -30t-16 -12z" />
    <glyph glyph-name="uni0645.init" horiz-adv-x="507" 
d="M252 -15q-37 0 -74.5 12t-73.5 34l46 69q27 -16 51.5 -24.5t50.5 -8.5q34 0 60.5 14t40.5 38.5t14 57.5q0 32 -13 57.5t-35.5 40.5t-49.5 15q-28 0 -50.5 -15.5t-35 -43t-12.5 -64.5q0 -28 6 -54t17 -45l-75 -40q-15 28 -24 65t-9 74q0 68 27 113.5t69 68.5t87 23
q48 0 90 -25t67.5 -69t25.5 -101q0 -59 -27.5 -102t-73 -66.5t-99.5 -23.5zM0 0v82h178v-82h-178zM0 0q-11 0 -15.5 12t-4.5 30t4.5 29t15.5 11v-82z" />
    <glyph glyph-name="uni06BA" unicode="&#x6ba;" horiz-adv-x="583" 
d="M281 -231q-110 0 -173.5 69t-63.5 191h83q0 -87 39.5 -132.5t114.5 -45.5q77 0 120 46.5t43 131.5h85q0 -81 -31.5 -139.5t-87.5 -89.5t-129 -31zM44 29v54l80 11l3 -8v-57h-83zM444 29v323l82 10l3 -8v-325h-85z" />
    <glyph glyph-name="uni06BA.fina" horiz-adv-x="615" 
d="M506 0v82h109v-82h-109zM615 0v82q12 0 16 -11t4 -29t-4 -30t-16 -12zM281 -231q-110 0 -173.5 69t-63.5 191h83q0 -87 39.5 -132.5t114.5 -45.5q77 0 120 46.5t43 131.5h85q0 -81 -31.5 -139.5t-87 -89.5t-129.5 -31zM44 29v54l80 11l3 -8v-57h-83zM444 29v323l82 10
l3 -8v-325h-85z" />
    <glyph glyph-name="uni0647" unicode="&#x647;" horiz-adv-x="485" 
d="M230 0q-58 0 -99.5 24.5t-64 68t-22.5 97.5q0 47 15 83l8 7q84 25 153.5 52.5t125.5 58.5l42 -72q-56 -31 -128.5 -60t-162.5 -56l35 32q1 -6 -1 -17.5t-2 -27.5q0 -51 27 -79.5t76 -28.5q50 0 119 33l65 -60q-50 -27 -97 -41t-89 -14zM340 55l3 50l-3 32.5t-6 83.5
t-3 107v88l82 10l3 -8v-116q0 -41 2.5 -82t5 -75.5t5 -55l2.5 -20.5l-15 -14h-76z" />
    <glyph glyph-name="uni0647.fina" horiz-adv-x="502" 
d="M230 31q-58 0 -99.5 24.5t-64 68t-22.5 97.5q0 47 16 84l7 6q83 25 152.5 52.5t126.5 58.5l42 -72q-56 -31 -128 -60t-163 -56l36 30q0 -7 -2 -18t-2 -26q0 -32 11.5 -56t35 -37.5t55.5 -13.5q26 0 54 7.5t62 23.5l33 -70q-38 -21 -76 -32t-74 -11zM331 0v82h171v-82
h-171zM331 0v447l82 10l3 -8v-449h-85zM502 0v82q12 0 16 -11t4 -29t-4 -30t-16 -12z" />
    <glyph glyph-name="uni0647.medi" horiz-adv-x="523" 
d="M411 0v82h112v-82h-112zM523 0v82q12 0 16 -11t4 -29t-4 -30t-16 -12zM280 -152q-100 0 -159.5 74t-59.5 210q0 89 25.5 155.5t69.5 103.5t99 37q50 0 91.5 -28.5t66 -77t24.5 -109.5q0 -99 -72 -156t-204 -57h-50v82h50q97 0 144 33t47 98q0 37 -13.5 67.5t-35.5 48
t-47 17.5q-29 0 -54.5 -26.5t-40.5 -75t-15 -115.5q0 -98 35.5 -149t98.5 -51q27 0 56.5 7t63.5 22l-31 -41q-7 74 -12 156t-5 154v220l82 10l3 -8v-222q0 -78 5.5 -167.5t12.5 -166.5q-97 -45 -175 -45zM0 0v82h111v-82h-111zM0 0q-11 0 -15.5 12t-4.5 30t4.5 29t15.5 11
v-82z" />
    <glyph glyph-name="uni0647.init" horiz-adv-x="510" 
d="M280 -152q-100 0 -159.5 74t-59.5 210q0 89 25.5 155.5t69.5 103.5t99 37q50 0 91.5 -28.5t66 -77t24.5 -109.5q0 -99 -72 -156t-204 -57h-50v82h50q97 0 144 33t47 98q0 37 -13.5 67.5t-35.5 48t-47 17.5q-29 0 -54.5 -26.5t-40.5 -75t-15 -115.5q0 -98 35.5 -149
t98.5 -51q27 0 56.5 7t63.5 22l-31 -41q-7 74 -12 156t-5 154v220l82 10l3 -8v-222q0 -78 5.5 -167.5t12.5 -166.5q-97 -45 -175 -45zM0 0v82h111v-82h-111zM0 0q-11 0 -15.5 12t-4.5 30t4.5 29t15.5 11v-82z" />
    <glyph glyph-name="uni06C1" unicode="&#x6c1;" horiz-adv-x="485" 
d="M230 0q-58 0 -99.5 24.5t-64 68t-22.5 97.5q0 47 15 83l8 7q84 25 153.5 52.5t125.5 58.5l42 -72q-56 -31 -128.5 -60t-162.5 -56l35 32q1 -6 -1 -17.5t-2 -27.5q0 -51 27 -79.5t76 -28.5q50 0 119 33l65 -60q-50 -27 -97 -41t-89 -14zM340 55l3 50l-3 32.5t-6 83.5
t-3 107v88l82 10l3 -8v-116q0 -41 2.5 -82t5 -75.5t5 -55l2.5 -20.5l-15 -14h-76z" />
    <glyph glyph-name="uni06C1.fina" horiz-adv-x="507" 
d="M111 -37l-72 44l186 294h100zM507 0q-32 0 -67.5 11.5t-71.5 41.5t-68 85t-56 141l81 22q16 -55 35.5 -96t42.5 -68.5t49 -41t55 -13.5v-82zM507 0v82q12 0 16 -11t4 -29t-4 -30t-16 -12z" />
    <glyph glyph-name="uni06C1.medi" horiz-adv-x="438" 
d="M265 -246q-52 47 -89 111.5t-57 141t-20 158.5q-3 16 -2.5 33.5t1.5 35.5l86 -1q-2 -17 -3 -34.5t-1 -33.5q0 -53 9 -103t24 -93t33 -75.5t36 -49.5l-24 -10q6 72 26 128t56.5 88t88.5 32h9v-82h-9q-43 0 -67 -59.5t-24 -162.5l-66 -24h-7zM0 0v82q22 0 36 9t26 33t24 72
l16 56h7l75 -19l-35 -58q-20 -90 -53 -132.5t-96 -42.5zM0 0q-11 0 -15.5 12t-4.5 30t4.5 29t15.5 11v-82zM438 0v82q12 0 16 -11t4 -29t-4 -30t-16 -12z" />
    <glyph glyph-name="uni06D5" unicode="&#x6d5;" horiz-adv-x="485" 
d="M230 0q-58 0 -99.5 24.5t-64 68t-22.5 97.5q0 47 15 83l8 7q84 25 153.5 52.5t125.5 58.5l42 -72q-56 -31 -128.5 -60t-162.5 -56l35 32q1 -6 -1 -17.5t-2 -27.5q0 -51 27 -79.5t76 -28.5q50 0 119 33l65 -60q-50 -27 -97 -41t-89 -14zM340 55l3 50l-3 32.5t-6 83.5
t-3 107v88l82 10l3 -8v-116q0 -41 2.5 -82t5 -75.5t5 -55l2.5 -20.5l-15 -14h-76z" />
    <glyph glyph-name="uni06BE" unicode="&#x6be;" horiz-adv-x="615" 
d="M51 0l-12 23l32 59h90v-82h-110zM385 -152q-99 0 -159 74t-60 210q0 89 25.5 155.5t69.5 103.5t99 37q50 0 91.5 -28.5t66.5 -77t25 -109.5q0 -99 -72 -156t-205 -57h-50v82h50q97 0 144.5 33t47.5 98q0 37 -14 67.5t-35.5 48t-47.5 17.5q-29 0 -54 -26.5t-40.5 -75
t-15.5 -115.5q0 -98 35.5 -149t99.5 -51q26 0 55.5 7t63.5 22l-31 -41q-7 74 -11.5 156t-4.5 154v220l82 10l3 -8v-222q0 -78 5.5 -167.5t12.5 -166.5q-97 -45 -176 -45zM105 0v82h111v-82h-111zM105 0q-11 0 -15.5 12t-4.5 30t4.5 29t15.5 11v-82z" />
    <glyph glyph-name="uni06BE.fina" horiz-adv-x="629" 
d="M42 0l-3 7l41 75h81v-82h-119zM516 0v82h113v-82h-113zM629 0v82q12 0 16 -11t4 -29t-4 -30t-16 -12zM385 -152q-99 0 -159 74t-60 210q0 89 25.5 155.5t69.5 103.5t99 37q50 0 91.5 -28.5t66.5 -77t25 -109.5q0 -99 -72 -156t-205 -57h-50v82h50q97 0 144.5 33t47.5 98
q0 37 -14 67.5t-35.5 48t-47.5 17.5q-29 0 -54 -26.5t-40.5 -75t-15.5 -115.5q0 -99 35.5 -149.5t99.5 -50.5q26 0 55.5 7t63.5 22l-31 -41q-7 74 -11.5 156t-4.5 154v220l82 10l3 -8v-222q0 -78 5.5 -167.5t12.5 -166.5q-97 -45 -176 -45zM105 0v82h111v-82h-111zM105 0
q-11 0 -15.5 12t-4.5 30t4.5 29t15.5 11v-82z" />
    <glyph glyph-name="uni06BE.medi" horiz-adv-x="523" 
d="M411 0v82h112v-82h-112zM523 0v82q12 0 16 -11t4 -29t-4 -30t-16 -12zM280 -152q-100 0 -159.5 74t-59.5 210q0 89 25.5 155.5t69.5 103.5t99 37q50 0 91.5 -28.5t66 -77t24.5 -109.5q0 -99 -72 -156t-204 -57h-50v82h50q97 0 144 33t47 98q0 37 -13.5 67.5t-35.5 48
t-47 17.5q-29 0 -54.5 -26.5t-40.5 -75t-15 -115.5q0 -98 35.5 -149t98.5 -51q27 0 56.5 7t63.5 22l-31 -41q-7 74 -12 156t-5 154v220l82 10l3 -8v-222q0 -78 5.5 -167.5t12.5 -166.5q-97 -45 -175 -45zM0 0v82h111v-82h-111zM0 0q-11 0 -15.5 12t-4.5 30t4.5 29t15.5 11
v-82z" />
    <glyph glyph-name="uni0648" unicode="&#x648;" horiz-adv-x="486" 
d="M254 0q-69 0 -112 27.5t-63 70.5t-20 91q0 59 24.5 102.5t66 68.5t90.5 25q63 0 105.5 -39t64.5 -106t22 -154h-85q0 101 -30 159t-79 58q-24 0 -45.5 -13.5t-35 -39.5t-13.5 -62q0 -50 30.5 -78t92.5 -28q36 0 60.5 9t40.5 27l31 -60q-22 -26 -57 -42t-88 -16zM194 -200
q-36 0 -67.5 6.5t-65.5 16.5l28 74h10q29 -8 50.5 -11.5t43.5 -3.5q79 0 116.5 47.5t37.5 156.5h85q0 -82 -22.5 -147t-75 -102t-140.5 -37z" />
    <glyph glyph-name="uni0648.fina" horiz-adv-x="519" 
d="M254 0q-69 0 -112 27.5t-63 70.5t-20 91q0 59 24.5 102.5t66 68.5t90.5 25q63 0 105.5 -39t64.5 -106t22 -154h-85q0 101 -30 159t-79 58q-24 0 -45.5 -13.5t-35 -39.5t-13.5 -62q0 -50 30.5 -78t92.5 -28h252v-82h-265zM194 -200q-36 0 -67.5 6.5t-65.5 16.5l28 74h10
q29 -8 50.5 -11.5t43.5 -3.5q79 0 116.5 47.5t37.5 156.5h85q0 -82 -22.5 -147t-75 -102t-140.5 -37zM519 0v82q12 0 16 -11t4 -29t-4 -30t-16 -12z" />
    <glyph glyph-name="uni0649" unicode="&#x649;" horiz-adv-x="773" 
d="M301 -202q-86 0 -154 18.5t-108 37.5l33 71h11q49 -22 105 -33.5t113 -11.5q60 0 103 13t66 35.5t23 49.5q0 17 -12.5 41t-47.5 69q-40 50 -61 88t-21 79q0 67 49 111t124 67l86 -27q15 -53 30.5 -92t35 -69t45.5 -58l-62 -45h-11q-37 41 -63.5 90.5t-46.5 117.5
q-21 -6 -44.5 -18.5t-40.5 -31t-17 -45.5q0 -26 19.5 -55.5t44.5 -61.5q29 -37 53.5 -76.5t24.5 -83.5q0 -27 -13.5 -58.5t-45.5 -59.5t-85 -45t-133 -17z" />
    <glyph glyph-name="uni0649.fina" horiz-adv-x="816" 
d="M301 -202q-86 0 -154 18.5t-108 37.5l33 71h11q49 -22 105 -33.5t113 -11.5q60 0 103 13t66 35.5t23 49.5q0 17 -12.5 41t-47.5 69q-40 50 -61 88t-21 79q0 67 49 111t124 67l87 -27q27 -106 67.5 -189.5t107.5 -163.5l-64 -53q-64 76 -110.5 162.5t-77.5 199.5l18 -8
q-11 -3 -30.5 -10t-39 -19t-33 -29t-13.5 -41q0 -26 19.5 -55.5t44.5 -61.5q29 -37 53.5 -76.5t24.5 -83.5q0 -27 -13.5 -58.5t-45.5 -59.5t-85 -45t-133 -17zM722 0v82h94v-82h-94zM816 0v82q12 0 16 -11t4 -29t-4 -30t-16 -12z" />
    <glyph glyph-name="uni06D2" unicode="&#x6d2;" horiz-adv-x="928" 
d="M382 0q-111 0 -183.5 29t-108.5 77t-36 104q0 58 35.5 114t99.5 97l79 -25q12 -42 23.5 -72t26.5 -53t35 -45l-54 -48h-11q-31 33 -52 69.5t-36 82.5q-30 -24 -46.5 -54t-16.5 -59q0 -36 26.5 -67t80.5 -49.5t138 -18.5h488l3 -6l-40 -76h-451z" />
    <glyph glyph-name="uni06D2.fina" horiz-adv-x="844" 
d="M314 -182q-59 62 -108 127.5t-87.5 141t-64.5 168.5q0 67 49 111t124 67l87 -27q26 -106 67 -189.5t108 -163.5l-64 -53q-64 76 -110.5 162.5t-77.5 199.5l18 -8q-11 -3 -30.5 -10t-39 -19t-33 -29t-13.5 -41l-8 44q22 -83 53 -152t75 -131.5t104 -126.5zM314 -182v82
h478l3 -6l-40 -76h-441zM425 0v82h419v-82h-419zM844 0v82q12 0 16 -11t4 -29t-4 -30t-16 -12z" />
    <glyph glyph-name="uni06D2.fina.narrow" horiz-adv-x="489" 
d="M314 -182q-59 62 -108 127.5t-87.5 141t-64.5 168.5q0 67 49 111t124 67l87 -27q26 -106 67 -189.5t108 -163.5l-64 -53q-64 76 -110.5 162.5t-77.5 199.5l18 -8q-11 -3 -30.5 -10t-39 -19t-33 -29t-13.5 -41l-8 44q22 -83 53 -152t75 -131.5t104 -126.5zM314 -182v82
h478l3 -6l-40 -76h-441zM425 0v82h64v-82h-64zM489 0v82q12 0 16 -11t4 -29t-4 -30t-16 -12z" />
    <glyph glyph-name="uni0640" unicode="&#x640;" horiz-adv-x="242" 
d="M0 0v82h242v-82h-242zM0 0q-11 0 -15.5 12t-4.5 30t4.5 29t15.5 11v-82zM242 0v82q12 0 16 -11t4 -29t-4 -30t-16 -12z" />
    <glyph glyph-name="uni0622" unicode="&#x622;" horiz-adv-x="241" 
d="M73 0v657l82 11l3 -8v-413q0 -41 2.5 -82t5 -75.5t5 -55l2.5 -20.5l-15 -14h-85zM31 716q0 27 3.5 45.5t17 28.5t40.5 10q18 0 39 -3t43 -5.5t39 -1.5v-53q-18 -1 -41.5 2t-46.5 6t-38 3l20 4q-16 -5 -19.5 -13t-3.5 -23h-53z" />
    <glyph glyph-name="uni0623" unicode="&#x623;" horiz-adv-x="241" 
d="M73 0v657l82 11l3 -8v-413q0 -41 2.5 -82t5 -75.5t5 -55l2.5 -20.5l-15 -14h-85zM64 755q-15 21 -15 42q0 24 16 42t38.5 33.5t43.5 28.5h3l31 -45q-42 -25 -56 -41.5t-14 -26.5q0 -8 4.5 -12.5t12.5 -4.5zM34 716v55h3q12 0 21 -2l9 -2l15 4h127v-4l-15 -51h-160z" />
    <glyph glyph-name="uni0625" unicode="&#x625;" horiz-adv-x="241" 
d="M73 0v746l82 10l3 -8v-501q0 -41 2.5 -82t5 -75.5t5 -55l2.5 -20.5l-15 -14h-85zM58 -196q-15 21 -15 42q0 24 16 42t38.5 33.5t43.5 28.5h3l31 -45q-42 -25 -56 -41.5t-14 -26.5q0 -8 4.5 -12.5t12.5 -4.5zM28 -235v55h3q12 0 21 -2l9 -2l15 4h127v-4l-15 -51h-160z" />
    <glyph glyph-name="uni0671" unicode="&#x671;" horiz-adv-x="241" 
d="M73 0v657l82 11l3 -8v-413q0 -41 2.5 -82t5 -75.5t5 -55l2.5 -20.5l-15 -14h-85zM178 765q0 15 -12 25.5t-30 10.5h-56v47h56q38 0 66.5 -23.5t28.5 -59.5h-53zM12 716l-2 3l22 43h40v-46h-60zM40 716v132h54v-132h-54zM72 716v46h71q14 0 28 -1l14 -1v-44h-113zM183 716
q-1 13 -3 26t-2 23h53q0 -10 1.5 -22.5t2.5 -21.5l-6 -5h-46z" />
    <glyph glyph-name="uni0628" unicode="&#x628;" horiz-adv-x="919" 
d="M467 0q-75 0 -151.5 5.5t-144.5 21.5t-117 47l40 64h11q50 -28 138 -42t224 -14h307l-1 -82h-306zM774 0l3 42l-3 32.5t-6 83.5t-3 107v87l82 10l3 -8v-107q0 -41 2.5 -82t5 -75.5t5 -55l2.5 -20.5l-15 -14h-76zM679 0v82h106v-82h-106zM679 0q-11 0 -15.5 12t-4.5 30
t4.5 29t15.5 11v-82zM459 -195q-20 0 -34.5 14.5t-14.5 34.5q0 21 14.5 35.5t35.5 14.5q20 0 34.5 -14.5t14.5 -35.5q0 -20 -14.5 -34.5t-35.5 -14.5z" />
    <glyph glyph-name="uni062A" unicode="&#x62a;" horiz-adv-x="919" 
d="M467 0q-75 0 -151.5 5.5t-144.5 21.5t-117 47l40 64h11q50 -28 138 -42t224 -14h307l-1 -82h-306zM774 0l3 42l-3 32.5t-6 83.5t-3 107v87l82 10l3 -8v-107q0 -41 2.5 -82t5 -75.5t5 -55l2.5 -20.5l-15 -14h-76zM679 0v82h106v-82h-106zM679 0q-11 0 -15.5 12t-4.5 30
t4.5 29t15.5 11v-82zM403 338q-20 0 -34.5 14.5t-14.5 34.5q0 21 14.5 35.5t35.5 14.5q20 0 34.5 -14.5t14.5 -35.5q0 -20 -14.5 -34.5t-35.5 -14.5zM516 338q-20 0 -34.5 14.5t-14.5 34.5q0 21 14.5 35.5t35.5 14.5q20 0 34.5 -14.5t14.5 -35.5q0 -20 -14.5 -34.5
t-35.5 -14.5z" />
    <glyph glyph-name="uni062B" unicode="&#x62b;" horiz-adv-x="919" 
d="M467 0q-75 0 -151.5 5.5t-144.5 21.5t-117 47l40 64h11q50 -28 138 -42t224 -14h307l-1 -82h-306zM774 0l3 42l-3 32.5t-6 83.5t-3 107v87l82 10l3 -8v-107q0 -41 2.5 -82t5 -75.5t5 -55l2.5 -20.5l-15 -14h-76zM679 0v82h106v-82h-106zM679 0q-11 0 -15.5 12t-4.5 30
t4.5 29t15.5 11v-82zM403 338q-20 0 -34.5 14.5t-14.5 34.5q0 21 14.5 35.5t35.5 14.5q20 0 34.5 -14.5t14.5 -35.5q0 -20 -14.5 -34.5t-35.5 -14.5zM516 338q-20 0 -34.5 14.5t-14.5 34.5q0 21 14.5 35.5t35.5 14.5q20 0 34.5 -14.5t14.5 -35.5q0 -20 -14.5 -34.5
t-35.5 -14.5zM459 435q-20 0 -34.5 14.5t-14.5 34.5q0 21 14.5 35.5t35.5 14.5q20 0 34.5 -14.5t14.5 -35.5q0 -20 -14.5 -34.5t-35.5 -14.5z" />
    <glyph glyph-name="uni0679" unicode="&#x679;" horiz-adv-x="919" 
d="M467 0q-75 0 -151.5 5.5t-144.5 21.5t-117 47l40 64h11q50 -28 138 -42t224 -14h307l-1 -82h-306zM774 0l3 42l-3 32.5t-6 83.5t-3 107v87l82 10l3 -8v-107q0 -41 2.5 -82t5 -75.5t5 -55l2.5 -20.5l-15 -14h-76zM679 0v82h106v-82h-106zM679 0q-11 0 -15.5 12t-4.5 30
t4.5 29t15.5 11v-82zM515 387q0 15 -12 25.5t-30 10.5h-56v47h56q38 0 66.5 -23.5t28.5 -59.5h-53zM349 338l-2 3l22 43h40v-46h-60zM409 338v46h71q14 0 28 -1l14 -1v-44h-113zM520 338q-1 13 -3 26t-2 23h53q0 -10 1.5 -22.5t2.5 -21.5l-6 -5h-46zM377 338v175l54 4v-179
h-54z" />
    <glyph glyph-name="uni067A" unicode="&#x67a;" horiz-adv-x="919" 
d="M467 0q-75 0 -151.5 5.5t-144.5 21.5t-117 47l40 64h11q50 -28 138 -42t224 -14h307l-1 -82h-306zM774 0l3 42l-3 32.5t-6 83.5t-3 107v87l82 10l3 -8v-107q0 -41 2.5 -82t5 -75.5t5 -55l2.5 -20.5l-15 -14h-76zM679 0v82h106v-82h-106zM679 0q-11 0 -15.5 12t-4.5 30
t4.5 29t15.5 11v-82zM508 387q0 -20 -14.5 -34.5t-34.5 -14.5q-21 0 -35.5 14.5t-14.5 35.5q0 20 14.5 34.5t35.5 14.5q20 0 34.5 -14.5t14.5 -35.5zM508 500q0 -20 -14.5 -34.5t-34.5 -14.5q-21 0 -35.5 14.5t-14.5 35.5q0 20 14.5 34.5t35.5 14.5q20 0 34.5 -14.5
t14.5 -35.5z" />
    <glyph glyph-name="uni067B" unicode="&#x67b;" horiz-adv-x="919" 
d="M467 0q-75 0 -151.5 5.5t-144.5 21.5t-117 47l40 64h11q50 -28 138 -42t224 -14h307l-1 -82h-306zM774 0l3 42l-3 32.5t-6 83.5t-3 107v87l82 10l3 -8v-107q0 -41 2.5 -82t5 -75.5t5 -55l2.5 -20.5l-15 -14h-76zM679 0v82h106v-82h-106zM679 0q-11 0 -15.5 12t-4.5 30
t4.5 29t15.5 11v-82zM509 -259q0 -20 -14.5 -34.5t-34.5 -14.5q-21 0 -35.5 14.5t-14.5 35.5q0 20 14.5 34.5t35.5 14.5q20 0 34.5 -14.5t14.5 -35.5zM509 -146q0 -20 -14.5 -34.5t-34.5 -14.5q-21 0 -35.5 14.5t-14.5 35.5q0 20 14.5 34.5t35.5 14.5q20 0 34.5 -14.5
t14.5 -35.5z" />
    <glyph glyph-name="uni067C" unicode="&#x67c;" horiz-adv-x="919" 
d="M467 0q-75 0 -151.5 5.5t-144.5 21.5t-117 47l40 64h11q50 -28 138 -42t224 -14h307l-1 -82h-306zM774 0l3 42l-3 32.5t-6 83.5t-3 107v87l82 10l3 -8v-107q0 -41 2.5 -82t5 -75.5t5 -55l2.5 -20.5l-15 -14h-76zM679 0v82h106v-82h-106zM679 0q-11 0 -15.5 12t-4.5 30
t4.5 29t15.5 11v-82zM403 338q-20 0 -34.5 14.5t-14.5 34.5q0 21 14.5 35.5t35.5 14.5q20 0 34.5 -14.5t14.5 -35.5q0 -20 -14.5 -34.5t-35.5 -14.5zM516 338q-20 0 -34.5 14.5t-14.5 34.5q0 21 14.5 35.5t35.5 14.5q20 0 34.5 -14.5t14.5 -35.5q0 -20 -14.5 -34.5
t-35.5 -14.5zM460 -140q-43 0 -68.5 23t-25.5 63q0 43 27 73t67 30q39 0 66 -29t27 -74q0 -41 -25.5 -63.5t-67.5 -22.5zM460 -91q44 0 44 40q0 22 -12.5 36.5t-31.5 14.5t-32 -15t-13 -37q0 -39 45 -39z" />
    <glyph glyph-name="uni067D" unicode="&#x67d;" horiz-adv-x="919" 
d="M467 0q-75 0 -151.5 5.5t-144.5 21.5t-117 47l40 64h11q50 -28 138 -42t224 -14h307l-1 -82h-306zM774 0l3 42l-3 32.5t-6 83.5t-3 107v87l82 10l3 -8v-107q0 -41 2.5 -82t5 -75.5t5 -55l2.5 -20.5l-15 -14h-76zM679 0v82h106v-82h-106zM679 0q-11 0 -15.5 12t-4.5 30
t4.5 29t15.5 11v-82zM403 435q-20 0 -34.5 14.5t-14.5 34.5q0 21 14.5 35.5t35.5 14.5q20 0 34.5 -14.5t14.5 -35.5q0 -20 -14.5 -34.5t-35.5 -14.5zM516 435q-20 0 -34.5 14.5t-14.5 34.5q0 21 14.5 35.5t35.5 14.5q20 0 34.5 -14.5t14.5 -35.5q0 -20 -14.5 -34.5
t-35.5 -14.5zM459 338q-20 0 -34.5 14.5t-14.5 34.5q0 21 14.5 35.5t35.5 14.5q20 0 34.5 -14.5t14.5 -35.5q0 -20 -14.5 -34.5t-35.5 -14.5z" />
    <glyph glyph-name="uni067E" unicode="&#x67e;" horiz-adv-x="919" 
d="M467 0q-75 0 -151.5 5.5t-144.5 21.5t-117 47l40 64h11q50 -28 138 -42t224 -14h307l-1 -82h-306zM774 0l3 42l-3 32.5t-6 83.5t-3 107v87l82 10l3 -8v-107q0 -41 2.5 -82t5 -75.5t5 -55l2.5 -20.5l-15 -14h-76zM679 0v82h106v-82h-106zM679 0q-11 0 -15.5 12t-4.5 30
t4.5 29t15.5 11v-82zM403 -195q-20 0 -34.5 14.5t-14.5 34.5q0 21 14.5 35.5t35.5 14.5q20 0 34.5 -14.5t14.5 -35.5q0 -20 -14.5 -34.5t-35.5 -14.5zM516 -195q-20 0 -34.5 14.5t-14.5 34.5q0 21 14.5 35.5t35.5 14.5q20 0 34.5 -14.5t14.5 -35.5q0 -20 -14.5 -34.5
t-35.5 -14.5zM459 -292q-20 0 -34.5 14.5t-14.5 34.5q0 21 14.5 35.5t35.5 14.5q20 0 34.5 -14.5t14.5 -35.5q0 -20 -14.5 -34.5t-35.5 -14.5z" />
    <glyph glyph-name="uni067F" unicode="&#x67f;" horiz-adv-x="919" 
d="M467 0q-75 0 -151.5 5.5t-144.5 21.5t-117 47l40 64h11q50 -28 138 -42t224 -14h307l-1 -82h-306zM774 0l3 42l-3 32.5t-6 83.5t-3 107v87l82 10l3 -8v-107q0 -41 2.5 -82t5 -75.5t5 -55l2.5 -20.5l-15 -14h-76zM679 0v82h106v-82h-106zM679 0q-11 0 -15.5 12t-4.5 30
t4.5 29t15.5 11v-82zM403 338q-20 0 -34.5 14.5t-14.5 34.5q0 21 14.5 35.5t35.5 14.5q20 0 34.5 -14.5t14.5 -35.5q0 -20 -14.5 -34.5t-35.5 -14.5zM403 451q-20 0 -34.5 14.5t-14.5 34.5q0 21 14.5 35.5t35.5 14.5q20 0 34.5 -14.5t14.5 -35.5q0 -20 -14.5 -34.5
t-35.5 -14.5zM516 338q-20 0 -34.5 14.5t-14.5 34.5q0 21 14.5 35.5t35.5 14.5q20 0 34.5 -14.5t14.5 -35.5q0 -20 -14.5 -34.5t-35.5 -14.5zM516 451q-20 0 -34.5 14.5t-14.5 34.5q0 21 14.5 35.5t35.5 14.5q20 0 34.5 -14.5t14.5 -35.5q0 -20 -14.5 -34.5t-35.5 -14.5z
" />
    <glyph glyph-name="uni0680" unicode="&#x680;" horiz-adv-x="919" 
d="M467 0q-75 0 -151.5 5.5t-144.5 21.5t-117 47l40 64h11q50 -28 138 -42t224 -14h307l-1 -82h-306zM774 0l3 42l-3 32.5t-6 83.5t-3 107v87l82 10l3 -8v-107q0 -41 2.5 -82t5 -75.5t5 -55l2.5 -20.5l-15 -14h-76zM679 0v82h106v-82h-106zM679 0q-11 0 -15.5 12t-4.5 30
t4.5 29t15.5 11v-82zM403 -308q-20 0 -34.5 14.5t-14.5 34.5q0 21 14.5 35.5t35.5 14.5q20 0 34.5 -14.5t14.5 -35.5q0 -20 -14.5 -34.5t-35.5 -14.5zM403 -195q-20 0 -34.5 14.5t-14.5 34.5q0 21 14.5 35.5t35.5 14.5q20 0 34.5 -14.5t14.5 -35.5q0 -20 -14.5 -34.5
t-35.5 -14.5zM516 -308q-20 0 -34.5 14.5t-14.5 34.5q0 21 14.5 35.5t35.5 14.5q20 0 34.5 -14.5t14.5 -35.5q0 -20 -14.5 -34.5t-35.5 -14.5zM516 -195q-20 0 -34.5 14.5t-14.5 34.5q0 21 14.5 35.5t35.5 14.5q20 0 34.5 -14.5t14.5 -35.5q0 -20 -14.5 -34.5t-35.5 -14.5z
" />
    <glyph glyph-name="uni0751" unicode="&#x751;" horiz-adv-x="919" 
d="M467 0q-75 0 -151.5 5.5t-144.5 21.5t-117 47l40 64h11q50 -28 138 -42t224 -14h307l-1 -82h-306zM774 0l3 42l-3 32.5t-6 83.5t-3 107v87l82 10l3 -8v-107q0 -41 2.5 -82t5 -75.5t5 -55l2.5 -20.5l-15 -14h-76zM679 0v82h106v-82h-106zM679 0q-11 0 -15.5 12t-4.5 30
t4.5 29t15.5 11v-82zM459 -195q-20 0 -34.5 14.5t-14.5 34.5q0 21 14.5 35.5t35.5 14.5q20 0 34.5 -14.5t14.5 -35.5q0 -20 -14.5 -34.5t-35.5 -14.5zM403 338q-20 0 -34.5 14.5t-14.5 34.5q0 21 14.5 35.5t35.5 14.5q20 0 34.5 -14.5t14.5 -35.5q0 -20 -14.5 -34.5
t-35.5 -14.5zM516 338q-20 0 -34.5 14.5t-14.5 34.5q0 21 14.5 35.5t35.5 14.5q20 0 34.5 -14.5t14.5 -35.5q0 -20 -14.5 -34.5t-35.5 -14.5zM459 435q-20 0 -34.5 14.5t-14.5 34.5q0 21 14.5 35.5t35.5 14.5q20 0 34.5 -14.5t14.5 -35.5q0 -20 -14.5 -34.5t-35.5 -14.5z
" />
    <glyph glyph-name="uni0752" unicode="&#x752;" horiz-adv-x="919" 
d="M467 0q-75 0 -151.5 5.5t-144.5 21.5t-117 47l40 64h11q50 -28 138 -42t224 -14h307l-1 -82h-306zM774 0l3 42l-3 32.5t-6 83.5t-3 107v87l82 10l3 -8v-107q0 -41 2.5 -82t5 -75.5t5 -55l2.5 -20.5l-15 -14h-76zM679 0v82h106v-82h-106zM679 0q-11 0 -15.5 12t-4.5 30
t4.5 29t15.5 11v-82zM403 -292q-20 0 -34.5 14.5t-14.5 34.5q0 21 14.5 35.5t35.5 14.5q20 0 34.5 -14.5t14.5 -35.5q0 -20 -14.5 -34.5t-35.5 -14.5zM516 -292q-20 0 -34.5 14.5t-14.5 34.5q0 21 14.5 35.5t35.5 14.5q20 0 34.5 -14.5t14.5 -35.5q0 -20 -14.5 -34.5
t-35.5 -14.5zM459 -195q-20 0 -34.5 14.5t-14.5 34.5q0 21 14.5 35.5t35.5 14.5q20 0 34.5 -14.5t14.5 -35.5q0 -20 -14.5 -34.5t-35.5 -14.5z" />
    <glyph glyph-name="uni0753" unicode="&#x753;" horiz-adv-x="919" 
d="M467 0q-75 0 -151.5 5.5t-144.5 21.5t-117 47l40 64h11q50 -28 138 -42t224 -14h307l-1 -82h-306zM774 0l3 42l-3 32.5t-6 83.5t-3 107v87l82 10l3 -8v-107q0 -41 2.5 -82t5 -75.5t5 -55l2.5 -20.5l-15 -14h-76zM679 0v82h106v-82h-106zM679 0q-11 0 -15.5 12t-4.5 30
t4.5 29t15.5 11v-82zM403 -292q-20 0 -34.5 14.5t-14.5 34.5q0 21 14.5 35.5t35.5 14.5q20 0 34.5 -14.5t14.5 -35.5q0 -20 -14.5 -34.5t-35.5 -14.5zM516 -292q-20 0 -34.5 14.5t-14.5 34.5q0 21 14.5 35.5t35.5 14.5q20 0 34.5 -14.5t14.5 -35.5q0 -20 -14.5 -34.5
t-35.5 -14.5zM459 -195q-20 0 -34.5 14.5t-14.5 34.5q0 21 14.5 35.5t35.5 14.5q20 0 34.5 -14.5t14.5 -35.5q0 -20 -14.5 -34.5t-35.5 -14.5zM403 338q-20 0 -34.5 14.5t-14.5 34.5q0 21 14.5 35.5t35.5 14.5q20 0 34.5 -14.5t14.5 -35.5q0 -20 -14.5 -34.5t-35.5 -14.5z
M516 338q-20 0 -34.5 14.5t-14.5 34.5q0 21 14.5 35.5t35.5 14.5q20 0 34.5 -14.5t14.5 -35.5q0 -20 -14.5 -34.5t-35.5 -14.5z" />
    <glyph glyph-name="uni0754" unicode="&#x754;" horiz-adv-x="919" 
d="M467 0q-75 0 -151.5 5.5t-144.5 21.5t-117 47l40 64h11q50 -28 138 -42t224 -14h307l-1 -82h-306zM774 0l3 42l-3 32.5t-6 83.5t-3 107v87l82 10l3 -8v-107q0 -41 2.5 -82t5 -75.5t5 -55l2.5 -20.5l-15 -14h-76zM679 0v82h106v-82h-106zM679 0q-11 0 -15.5 12t-4.5 30
t4.5 29t15.5 11v-82zM403 -195q-20 0 -34.5 14.5t-14.5 34.5q0 21 14.5 35.5t35.5 14.5q20 0 34.5 -14.5t14.5 -35.5q0 -20 -14.5 -34.5t-35.5 -14.5zM516 -195q-20 0 -34.5 14.5t-14.5 34.5q0 21 14.5 35.5t35.5 14.5q20 0 34.5 -14.5t14.5 -35.5q0 -20 -14.5 -34.5
t-35.5 -14.5zM459 338q-20 0 -34.5 14.5t-14.5 34.5q0 21 14.5 35.5t35.5 14.5q20 0 34.5 -14.5t14.5 -35.5q0 -20 -14.5 -34.5t-35.5 -14.5z" />
    <glyph glyph-name="uni0755" unicode="&#x755;" horiz-adv-x="919" 
d="M467 0q-75 0 -151.5 5.5t-144.5 21.5t-117 47l40 64h11q50 -28 138 -42t224 -14h307l-1 -82h-306zM774 0l3 42l-3 32.5t-6 83.5t-3 107v87l82 10l3 -8v-107q0 -41 2.5 -82t5 -75.5t5 -55l2.5 -20.5l-15 -14h-76zM679 0v82h106v-82h-106zM679 0q-11 0 -15.5 12t-4.5 30
t4.5 29t15.5 11v-82zM433 -96l60 -7l48 -162l-2 -4h-47l-35 143l5 2l-33 -145h-48l-2 4l46 162z" />
    <glyph glyph-name="uni0756" unicode="&#x756;" horiz-adv-x="919" 
d="M467 0q-75 0 -151.5 5.5t-144.5 21.5t-117 47l40 64h11q50 -28 138 -42t224 -14h307l-1 -82h-306zM774 0l3 42l-3 32.5t-6 83.5t-3 107v87l82 10l3 -8v-107q0 -41 2.5 -82t5 -75.5t5 -55l2.5 -20.5l-15 -14h-76zM679 0v82h106v-82h-106zM679 0q-11 0 -15.5 12t-4.5 30
t4.5 29t15.5 11v-82zM433 338l-8 7l-46 162l2 4h48l33 -144l-5 1l35 143h47l2 -4l-48 -162z" />
    <glyph glyph-name="uni08A0" unicode="&#x8a0;" horiz-adv-x="919" 
d="M467 0q-75 0 -151.5 5.5t-144.5 21.5t-117 47l40 64h11q50 -28 138 -42t224 -14h307l-1 -82h-306zM774 0l3 42l-3 32.5t-6 83.5t-3 107v87l82 10l3 -8v-107q0 -41 2.5 -82t5 -75.5t5 -55l2.5 -20.5l-15 -14h-76zM679 0v82h106v-82h-106zM679 0q-11 0 -15.5 12t-4.5 30
t4.5 29t15.5 11v-82zM433 -269l-8 7l-46 162l2 4h48l33 -144l-5 1l35 143h47l2 -4l-48 -162z" />
    <glyph glyph-name="uni08A1" unicode="&#x8a1;" horiz-adv-x="919" 
d="M467 0q-75 0 -151.5 5.5t-144.5 21.5t-117 47l40 64h11q50 -28 138 -42t224 -14h307l-1 -82h-306zM774 0l3 42l-3 32.5t-6 83.5t-3 107v87l82 10l3 -8v-107q0 -41 2.5 -82t5 -75.5t5 -55l2.5 -20.5l-15 -14h-76zM679 0v82h106v-82h-106zM679 0q-11 0 -15.5 12t-4.5 30
t4.5 29t15.5 11v-82zM459 -195q-20 0 -34.5 14.5t-14.5 34.5q0 21 14.5 35.5t35.5 14.5q20 0 34.5 -14.5t14.5 -35.5q0 -20 -14.5 -34.5t-35.5 -14.5zM401 377q-15 21 -15 42q0 24 16 42t38.5 33.5t43.5 28.5h3l31 -45q-42 -25 -56 -41.5t-14 -26.5q0 -8 4.5 -12.5
t12.5 -4.5zM371 338v55h3q12 0 21 -2l9 -2l15 4h127v-4l-15 -51h-160z" />
    <glyph glyph-name="uni08BE" unicode="&#x8be;" horiz-adv-x="919" 
d="M467 0q-75 0 -151.5 5.5t-144.5 21.5t-117 47l40 64h11q50 -28 138 -42t224 -14h307l-1 -82h-306zM774 0l3 42l-3 32.5t-6 83.5t-3 107v87l82 10l3 -8v-107q0 -41 2.5 -82t5 -75.5t5 -55l2.5 -20.5l-15 -14h-76zM679 0v82h106v-82h-106zM679 0q-11 0 -15.5 12t-4.5 30
t4.5 29t15.5 11v-82zM403 -195q-20 0 -34.5 14.5t-14.5 34.5q0 21 14.5 35.5t35.5 14.5q20 0 34.5 -14.5t14.5 -35.5q0 -20 -14.5 -34.5t-35.5 -14.5zM516 -195q-20 0 -34.5 14.5t-14.5 34.5q0 21 14.5 35.5t35.5 14.5q20 0 34.5 -14.5t14.5 -35.5q0 -20 -14.5 -34.5
t-35.5 -14.5zM459 -292q-20 0 -34.5 14.5t-14.5 34.5q0 21 14.5 35.5t35.5 14.5q20 0 34.5 -14.5t14.5 -35.5q0 -20 -14.5 -34.5t-35.5 -14.5zM433 338l-8 7l-46 162l2 4h48l33 -144l-5 1l35 143h47l2 -4l-48 -162z" />
    <glyph glyph-name="uni08BF" unicode="&#x8bf;" horiz-adv-x="919" 
d="M467 0q-75 0 -151.5 5.5t-144.5 21.5t-117 47l40 64h11q50 -28 138 -42t224 -14h307l-1 -82h-306zM774 0l3 42l-3 32.5t-6 83.5t-3 107v87l82 10l3 -8v-107q0 -41 2.5 -82t5 -75.5t5 -55l2.5 -20.5l-15 -14h-76zM679 0v82h106v-82h-106zM679 0q-11 0 -15.5 12t-4.5 30
t4.5 29t15.5 11v-82zM403 338q-20 0 -34.5 14.5t-14.5 34.5q0 21 14.5 35.5t35.5 14.5q20 0 34.5 -14.5t14.5 -35.5q0 -20 -14.5 -34.5t-35.5 -14.5zM516 338q-20 0 -34.5 14.5t-14.5 34.5q0 21 14.5 35.5t35.5 14.5q20 0 34.5 -14.5t14.5 -35.5q0 -20 -14.5 -34.5
t-35.5 -14.5zM433 488l-8 7l-46 162l2 4h48l33 -144l-5 1l35 143h47l2 -4l-48 -162z" />
    <glyph glyph-name="uni08C0" unicode="&#x8c0;" horiz-adv-x="919" 
d="M467 0q-75 0 -151.5 5.5t-144.5 21.5t-117 47l40 64h11q50 -28 138 -42t224 -14h307l-1 -82h-306zM774 0l3 42l-3 32.5t-6 83.5t-3 107v87l82 10l3 -8v-107q0 -41 2.5 -82t5 -75.5t5 -55l2.5 -20.5l-15 -14h-76zM679 0v82h106v-82h-106zM679 0q-11 0 -15.5 12t-4.5 30
t4.5 29t15.5 11v-82zM515 387q0 15 -12 25.5t-30 10.5h-56v47h56q38 0 66.5 -23.5t28.5 -59.5h-53zM349 338l-2 3l22 43h40v-46h-60zM409 338v46h71q14 0 28 -1l14 -1v-44h-113zM520 338q-1 13 -3 26t-2 23h53q0 -10 1.5 -22.5t2.5 -21.5l-6 -5h-46zM377 338v175l54 4v-179
h-54zM433 531l-8 7l-46 162l2 4h48l33 -144l-5 1l35 143h47l2 -4l-48 -162z" />
    <glyph glyph-name="uni062C" unicode="&#x62c;" horiz-adv-x="717" 
d="M586 6q-64 16 -130.5 46t-129.5 71.5t-119 91.5t-101 105l62 49h7q32 -39 79.5 -84t107 -87t128 -74.5t141.5 -47.5zM279 0v82h35q27 0 52 -1.5t41 -3.5l16 -2l94 7h140v-7l-23 -75h-355zM282 -200q-77 0 -131 20t-82.5 54t-28.5 76q0 66 65.5 99t173.5 33v-82
q-75 0 -117 -14t-49 -38q7 -29 52.5 -47.5t114.5 -18.5q16 0 37 1t44 3l14 -71v-10q-26 -3 -50.5 -4t-42.5 -1zM523 -176q-20 0 -34.5 14.5t-14.5 34.5q0 21 14.5 35.5t35.5 14.5q20 0 34.5 -14.5t14.5 -35.5q0 -20 -14.5 -34.5t-35.5 -14.5z" />
    <glyph glyph-name="uni062E" unicode="&#x62e;" horiz-adv-x="717" 
d="M586 6q-64 16 -130.5 46t-129.5 71.5t-119 91.5t-101 105l62 49h7q32 -39 79.5 -84t107 -87t128 -74.5t141.5 -47.5zM279 0v82h35q27 0 52 -1.5t41 -3.5l16 -2l94 7h140v-7l-23 -75h-355zM282 -200q-77 0 -131 20t-82.5 54t-28.5 76q0 66 65.5 99t173.5 33v-82
q-75 0 -117 -14t-49 -38q7 -29 52.5 -47.5t114.5 -18.5q16 0 37 1t44 3l14 -71v-10q-26 -3 -50.5 -4t-42.5 -1zM258 444q-20 0 -34.5 14.5t-14.5 34.5q0 21 14.5 35.5t35.5 14.5q20 0 34.5 -14.5t14.5 -35.5q0 -20 -14.5 -34.5t-35.5 -14.5z" />
    <glyph glyph-name="uni0681" unicode="&#x681;" horiz-adv-x="717" 
d="M586 6q-64 16 -130.5 46t-129.5 71.5t-119 91.5t-101 105l62 49h7q32 -39 79.5 -84t107 -87t128 -74.5t141.5 -47.5zM279 0v82h35q27 0 52 -1.5t41 -3.5l16 -2l94 7h140v-7l-23 -75h-355zM282 -200q-77 0 -131 20t-82.5 54t-28.5 76q0 66 65.5 99t173.5 33v-82
q-75 0 -117 -14t-49 -38q7 -29 52.5 -47.5t114.5 -18.5q16 0 37 1t44 3l14 -71v-10q-26 -3 -50.5 -4t-42.5 -1zM201 483q-15 21 -15 42q0 24 16 42t38.5 33.5t43.5 28.5h3l31 -45q-42 -25 -56 -41.5t-14 -26.5q0 -8 4.5 -12.5t12.5 -4.5zM171 444v55h3q12 0 21 -2l9 -2l15 4
h127v-4l-15 -51h-160z" />
    <glyph glyph-name="uni0682" unicode="&#x682;" horiz-adv-x="717" 
d="M586 6q-64 16 -130.5 46t-129.5 71.5t-119 91.5t-101 105l62 49h7q32 -39 79.5 -84t107 -87t128 -74.5t141.5 -47.5zM279 0v82h35q27 0 52 -1.5t41 -3.5l16 -2l94 7h140v-7l-23 -75h-355zM282 -200q-77 0 -131 20t-82.5 54t-28.5 76q0 66 65.5 99t173.5 33v-82
q-75 0 -117 -14t-49 -38q7 -29 52.5 -47.5t114.5 -18.5q16 0 37 1t44 3l14 -71v-10q-26 -3 -50.5 -4t-42.5 -1zM308 493q0 -20 -14.5 -34.5t-34.5 -14.5q-21 0 -35.5 14.5t-14.5 35.5q0 20 14.5 34.5t35.5 14.5q20 0 34.5 -14.5t14.5 -35.5zM308 606q0 -20 -14.5 -34.5
t-34.5 -14.5q-21 0 -35.5 14.5t-14.5 35.5q0 20 14.5 34.5t35.5 14.5q20 0 34.5 -14.5t14.5 -35.5z" />
    <glyph glyph-name="uni0683" unicode="&#x683;" horiz-adv-x="717" 
d="M586 6q-64 16 -130.5 46t-129.5 71.5t-119 91.5t-101 105l62 49h7q32 -39 79.5 -84t107 -87t128 -74.5t141.5 -47.5zM279 0v82h35q27 0 52 -1.5t41 -3.5l16 -2l94 7h140v-7l-23 -75h-355zM282 -200q-77 0 -131 20t-82.5 54t-28.5 76q0 66 65.5 99t173.5 33v-82
q-75 0 -117 -14t-49 -38q7 -29 52.5 -47.5t114.5 -18.5q16 0 37 1t44 3l14 -71v-10q-26 -3 -50.5 -4t-42.5 -1zM467 -175q-20 0 -34.5 14.5t-14.5 34.5q0 21 14.5 35.5t35.5 14.5q20 0 34.5 -14.5t14.5 -35.5q0 -20 -14.5 -34.5t-35.5 -14.5zM580 -175q-20 0 -34.5 14.5
t-14.5 34.5q0 21 14.5 35.5t35.5 14.5q20 0 34.5 -14.5t14.5 -35.5q0 -20 -14.5 -34.5t-35.5 -14.5z" />
    <glyph glyph-name="uni0684" unicode="&#x684;" horiz-adv-x="717" 
d="M586 6q-64 16 -130.5 46t-129.5 71.5t-119 91.5t-101 105l62 49h7q32 -39 79.5 -84t107 -87t128 -74.5t141.5 -47.5zM279 0v82h35q27 0 52 -1.5t41 -3.5l16 -2l94 7h140v-7l-23 -75h-355zM282 -200q-77 0 -131 20t-82.5 54t-28.5 76q0 66 65.5 99t173.5 33v-82
q-75 0 -117 -14t-49 -38q7 -29 52.5 -47.5t114.5 -18.5q16 0 37 1t44 3l14 -71v-10q-26 -3 -50.5 -4t-42.5 -1zM573 -220q0 -20 -14.5 -34.5t-34.5 -14.5q-21 0 -35.5 14.5t-14.5 35.5q0 20 14.5 34.5t35.5 14.5q20 0 34.5 -14.5t14.5 -35.5zM573 -107q0 -20 -14.5 -34.5
t-34.5 -14.5q-21 0 -35.5 14.5t-14.5 35.5q0 20 14.5 34.5t35.5 14.5q20 0 34.5 -14.5t14.5 -35.5z" />
    <glyph glyph-name="uni0685" unicode="&#x685;" horiz-adv-x="717" 
d="M586 6q-64 16 -130.5 46t-129.5 71.5t-119 91.5t-101 105l62 49h7q32 -39 79.5 -84t107 -87t128 -74.5t141.5 -47.5zM279 0v82h35q27 0 52 -1.5t41 -3.5l16 -2l94 7h140v-7l-23 -75h-355zM282 -200q-77 0 -131 20t-82.5 54t-28.5 76q0 66 65.5 99t173.5 33v-82
q-75 0 -117 -14t-49 -38q7 -29 52.5 -47.5t114.5 -18.5q16 0 37 1t44 3l14 -71v-10q-26 -3 -50.5 -4t-42.5 -1zM202 444q-20 0 -34.5 14.5t-14.5 34.5q0 21 14.5 35.5t35.5 14.5q20 0 34.5 -14.5t14.5 -35.5q0 -20 -14.5 -34.5t-35.5 -14.5zM315 444q-20 0 -34.5 14.5
t-14.5 34.5q0 21 14.5 35.5t35.5 14.5q20 0 34.5 -14.5t14.5 -35.5q0 -20 -14.5 -34.5t-35.5 -14.5zM258 541q-20 0 -34.5 14.5t-14.5 34.5q0 21 14.5 35.5t35.5 14.5q20 0 34.5 -14.5t14.5 -35.5q0 -20 -14.5 -34.5t-35.5 -14.5z" />
    <glyph glyph-name="uni0686" unicode="&#x686;" horiz-adv-x="717" 
d="M586 6q-64 16 -130.5 46t-129.5 71.5t-119 91.5t-101 105l62 49h7q32 -39 79.5 -84t107 -87t128 -74.5t141.5 -47.5zM279 0v82h35q27 0 52 -1.5t41 -3.5l16 -2l94 7h140v-7l-23 -75h-355zM282 -200q-77 0 -131 20t-82.5 54t-28.5 76q0 66 65.5 99t173.5 33v-82
q-75 0 -117 -14t-49 -38q7 -29 52.5 -47.5t114.5 -18.5q16 0 37 1t44 3l14 -71v-10q-26 -3 -50.5 -4t-42.5 -1zM467 -154q-20 0 -34.5 14.5t-14.5 34.5q0 21 14.5 35.5t35.5 14.5q20 0 34.5 -14.5t14.5 -35.5q0 -20 -14.5 -34.5t-35.5 -14.5zM580 -154q-20 0 -34.5 14.5
t-14.5 34.5q0 21 14.5 35.5t35.5 14.5q20 0 34.5 -14.5t14.5 -35.5q0 -20 -14.5 -34.5t-35.5 -14.5zM523 -251q-20 0 -34.5 14.5t-14.5 34.5q0 21 14.5 35.5t35.5 14.5q20 0 34.5 -14.5t14.5 -35.5q0 -20 -14.5 -34.5t-35.5 -14.5z" />
    <glyph glyph-name="uni0687" unicode="&#x687;" horiz-adv-x="717" 
d="M586 6q-64 16 -130.5 46t-129.5 71.5t-119 91.5t-101 105l62 49h7q32 -39 79.5 -84t107 -87t128 -74.5t141.5 -47.5zM279 0v82h35q27 0 52 -1.5t41 -3.5l16 -2l94 7h140v-7l-23 -75h-355zM282 -200q-77 0 -131 20t-82.5 54t-28.5 76q0 66 65.5 99t173.5 33v-82
q-75 0 -117 -14t-49 -38q7 -29 52.5 -47.5t114.5 -18.5q16 0 37 1t44 3l14 -71v-10q-26 -3 -50.5 -4t-42.5 -1zM467 -267q-20 0 -34.5 14.5t-14.5 34.5q0 21 14.5 35.5t35.5 14.5q20 0 34.5 -14.5t14.5 -35.5q0 -20 -14.5 -34.5t-35.5 -14.5zM467 -154q-20 0 -34.5 14.5
t-14.5 34.5q0 21 14.5 35.5t35.5 14.5q20 0 34.5 -14.5t14.5 -35.5q0 -20 -14.5 -34.5t-35.5 -14.5zM580 -267q-20 0 -34.5 14.5t-14.5 34.5q0 21 14.5 35.5t35.5 14.5q20 0 34.5 -14.5t14.5 -35.5q0 -20 -14.5 -34.5t-35.5 -14.5zM580 -154q-20 0 -34.5 14.5t-14.5 34.5
q0 21 14.5 35.5t35.5 14.5q20 0 34.5 -14.5t14.5 -35.5q0 -20 -14.5 -34.5t-35.5 -14.5z" />
    <glyph glyph-name="uni06BF" unicode="&#x6bf;" horiz-adv-x="717" 
d="M586 6q-64 16 -130.5 46t-129.5 71.5t-119 91.5t-101 105l62 49h7q32 -39 79.5 -84t107 -87t128 -74.5t141.5 -47.5zM279 0v82h35q27 0 52 -1.5t41 -3.5l16 -2l94 7h140v-7l-23 -75h-355zM282 -200q-77 0 -131 20t-82.5 54t-28.5 76q0 66 65.5 99t173.5 33v-82
q-75 0 -117 -14t-49 -38q7 -29 52.5 -47.5t114.5 -18.5q16 0 37 1t44 3l14 -71v-10q-26 -3 -50.5 -4t-42.5 -1zM467 -154q-20 0 -34.5 14.5t-14.5 34.5q0 21 14.5 35.5t35.5 14.5q20 0 34.5 -14.5t14.5 -35.5q0 -20 -14.5 -34.5t-35.5 -14.5zM580 -154q-20 0 -34.5 14.5
t-14.5 34.5q0 21 14.5 35.5t35.5 14.5q20 0 34.5 -14.5t14.5 -35.5q0 -20 -14.5 -34.5t-35.5 -14.5zM523 -251q-20 0 -34.5 14.5t-14.5 34.5q0 21 14.5 35.5t35.5 14.5q20 0 34.5 -14.5t14.5 -35.5q0 -20 -14.5 -34.5t-35.5 -14.5zM258 444q-20 0 -34.5 14.5t-14.5 34.5
q0 21 14.5 35.5t35.5 14.5q20 0 34.5 -14.5t14.5 -35.5q0 -20 -14.5 -34.5t-35.5 -14.5z" />
    <glyph glyph-name="uni0757" unicode="&#x757;" horiz-adv-x="717" 
d="M586 6q-64 16 -130.5 46t-129.5 71.5t-119 91.5t-101 105l62 49h7q32 -39 79.5 -84t107 -87t128 -74.5t141.5 -47.5zM279 0v82h35q27 0 52 -1.5t41 -3.5l16 -2l94 7h140v-7l-23 -75h-355zM282 -200q-77 0 -131 20t-82.5 54t-28.5 76q0 66 65.5 99t173.5 33v-82
q-75 0 -117 -14t-49 -38q7 -29 52.5 -47.5t114.5 -18.5q16 0 37 1t44 3l14 -71v-10q-26 -3 -50.5 -4t-42.5 -1zM202 444q-20 0 -34.5 14.5t-14.5 34.5q0 21 14.5 35.5t35.5 14.5q20 0 34.5 -14.5t14.5 -35.5q0 -20 -14.5 -34.5t-35.5 -14.5zM315 444q-20 0 -34.5 14.5
t-14.5 34.5q0 21 14.5 35.5t35.5 14.5q20 0 34.5 -14.5t14.5 -35.5q0 -20 -14.5 -34.5t-35.5 -14.5z" />
    <glyph glyph-name="uni0758" unicode="&#x758;" horiz-adv-x="717" 
d="M586 6q-64 16 -130.5 46t-129.5 71.5t-119 91.5t-101 105l62 49h7q32 -39 79.5 -84t107 -87t128 -74.5t141.5 -47.5zM279 0v82h35q27 0 52 -1.5t41 -3.5l16 -2l94 7h140v-7l-23 -75h-355zM282 -200q-77 0 -131 20t-82.5 54t-28.5 76q0 66 65.5 99t173.5 33v-82
q-75 0 -117 -14t-49 -38q7 -29 52.5 -47.5t114.5 -18.5q16 0 37 1t44 3l14 -71v-10q-26 -3 -50.5 -4t-42.5 -1zM467 -253q-20 0 -34.5 14.5t-14.5 34.5q0 21 14.5 35.5t35.5 14.5q20 0 34.5 -14.5t14.5 -35.5q0 -20 -14.5 -34.5t-35.5 -14.5zM580 -253q-20 0 -34.5 14.5
t-14.5 34.5q0 21 14.5 35.5t35.5 14.5q20 0 34.5 -14.5t14.5 -35.5q0 -20 -14.5 -34.5t-35.5 -14.5zM523 -155q-20 0 -34.5 14.5t-14.5 34.5q0 21 14.5 35.5t35.5 14.5q20 0 34.5 -14.5t14.5 -35.5q0 -20 -14.5 -34.5t-35.5 -14.5z" />
    <glyph glyph-name="uni076E" unicode="&#x76e;" horiz-adv-x="717" 
d="M586 6q-64 16 -130.5 46t-129.5 71.5t-119 91.5t-101 105l62 49h7q32 -39 79.5 -84t107 -87t128 -74.5t141.5 -47.5zM279 0v82h35q27 0 52 -1.5t41 -3.5l16 -2l94 7h140v-7l-23 -75h-355zM282 -200q-77 0 -131 20t-82.5 54t-28.5 76q0 66 65.5 99t173.5 33v-82
q-75 0 -117 -14t-49 -38q7 -29 52.5 -47.5t114.5 -18.5q16 0 37 1t44 3l14 -71v-10q-26 -3 -50.5 -4t-42.5 -1zM579 -149q0 15 -12 25.5t-30 10.5h-56v47h56q38 0 66.5 -23.5t28.5 -59.5h-53zM413 -198l-2 3l22 43h40v-46h-60zM473 -198v46h71q14 0 28 -1l14 -1v-44h-113z
M584 -198q-1 13 -3 26t-2 23h53q0 -10 1.5 -22.5t2.5 -21.5l-6 -5h-46zM441 -198v175l54 4v-179h-54z" />
    <glyph glyph-name="uni076F" unicode="&#x76f;" horiz-adv-x="717" 
d="M586 6q-64 16 -130.5 46t-129.5 71.5t-119 91.5t-101 105l62 49h7q32 -39 79.5 -84t107 -87t128 -74.5t141.5 -47.5zM279 0v82h35q27 0 52 -1.5t41 -3.5l16 -2l94 7h140v-7l-23 -75h-355zM282 -200q-77 0 -131 20t-82.5 54t-28.5 76q0 66 65.5 99t173.5 33v-82
q-75 0 -117 -14t-49 -38q7 -29 52.5 -47.5t114.5 -18.5q16 0 37 1t44 3l14 -71v-10q-26 -3 -50.5 -4t-42.5 -1zM467 -309q-20 0 -34.5 14.5t-14.5 34.5q0 21 14.5 35.5t35.5 14.5q20 0 34.5 -14.5t14.5 -35.5q0 -20 -14.5 -34.5t-35.5 -14.5zM580 -309q-20 0 -34.5 14.5
t-14.5 34.5q0 21 14.5 35.5t35.5 14.5q20 0 34.5 -14.5t14.5 -35.5q0 -20 -14.5 -34.5t-35.5 -14.5zM579 -149q0 15 -12 25.5t-30 10.5h-56v47h56q38 0 66.5 -23.5t28.5 -59.5h-53zM413 -198l-2 3l22 43h40v-46h-60zM473 -198v46h71q14 0 28 -1l14 -1v-44h-113zM584 -198
q-1 13 -3 26t-2 23h53q0 -10 1.5 -22.5t2.5 -21.5l-6 -5h-46zM441 -198v175l54 4v-179h-54z" />
    <glyph glyph-name="uni0772" unicode="&#x772;" horiz-adv-x="717" 
d="M586 6q-64 16 -130.5 46t-129.5 71.5t-119 91.5t-101 105l62 49h7q32 -39 79.5 -84t107 -87t128 -74.5t141.5 -47.5zM279 0v82h35q27 0 52 -1.5t41 -3.5l16 -2l94 7h140v-7l-23 -75h-355zM282 -200q-77 0 -131 20t-82.5 54t-28.5 76q0 66 65.5 99t173.5 33v-82
q-75 0 -117 -14t-49 -38q7 -29 52.5 -47.5t114.5 -18.5q16 0 37 1t44 3l14 -71v-10q-26 -3 -50.5 -4t-42.5 -1zM314 493q0 15 -12 25.5t-30 10.5h-56v47h56q38 0 66.5 -23.5t28.5 -59.5h-53zM148 444l-2 3l22 43h40v-46h-60zM208 444v46h71q14 0 28 -1l14 -1v-44h-113z
M319 444q-1 13 -3 26t-2 23h53q0 -10 1.5 -22.5t2.5 -21.5l-6 -5h-46zM176 444v175l54 4v-179h-54z" />
    <glyph glyph-name="uni08A2" unicode="&#x8a2;" horiz-adv-x="717" 
d="M586 6q-64 16 -130.5 46t-129.5 71.5t-119 91.5t-101 105l62 49h7q32 -39 79.5 -84t107 -87t128 -74.5t141.5 -47.5zM279 0v82h35q27 0 52 -1.5t41 -3.5l16 -2l94 7h140v-7l-23 -75h-355zM282 -200q-77 0 -131 20t-82.5 54t-28.5 76q0 66 65.5 99t173.5 33v-82
q-75 0 -117 -14t-49 -38q7 -29 52.5 -47.5t114.5 -18.5q16 0 37 1t44 3l14 -71v-10q-26 -3 -50.5 -4t-42.5 -1zM523 -176q-20 0 -34.5 14.5t-14.5 34.5q0 21 14.5 35.5t35.5 14.5q20 0 34.5 -14.5t14.5 -35.5q0 -20 -14.5 -34.5t-35.5 -14.5zM202 444q-20 0 -34.5 14.5
t-14.5 34.5q0 21 14.5 35.5t35.5 14.5q20 0 34.5 -14.5t14.5 -35.5q0 -20 -14.5 -34.5t-35.5 -14.5zM315 444q-20 0 -34.5 14.5t-14.5 34.5q0 21 14.5 35.5t35.5 14.5q20 0 34.5 -14.5t14.5 -35.5q0 -20 -14.5 -34.5t-35.5 -14.5z" />
    <glyph glyph-name="uni08C1" unicode="&#x8c1;" horiz-adv-x="717" 
d="M586 6q-64 16 -130.5 46t-129.5 71.5t-119 91.5t-101 105l62 49h7q32 -39 79.5 -84t107 -87t128 -74.5t141.5 -47.5zM279 0v82h35q27 0 52 -1.5t41 -3.5l16 -2l94 7h140v-7l-23 -75h-355zM282 -200q-77 0 -131 20t-82.5 54t-28.5 76q0 66 65.5 99t173.5 33v-82
q-75 0 -117 -14t-49 -38q7 -29 52.5 -47.5t114.5 -18.5q16 0 37 1t44 3l14 -71v-10q-26 -3 -50.5 -4t-42.5 -1zM467 -154q-20 0 -34.5 14.5t-14.5 34.5q0 21 14.5 35.5t35.5 14.5q20 0 34.5 -14.5t14.5 -35.5q0 -20 -14.5 -34.5t-35.5 -14.5zM580 -154q-20 0 -34.5 14.5
t-14.5 34.5q0 21 14.5 35.5t35.5 14.5q20 0 34.5 -14.5t14.5 -35.5q0 -20 -14.5 -34.5t-35.5 -14.5zM523 -251q-20 0 -34.5 14.5t-14.5 34.5q0 21 14.5 35.5t35.5 14.5q20 0 34.5 -14.5t14.5 -35.5q0 -20 -14.5 -34.5t-35.5 -14.5zM232 444l-8 7l-46 162l2 4h48l33 -144
l-5 1l35 143h47l2 -4l-48 -162z" />
    <glyph glyph-name="uni08C5" unicode="&#x8c5;" horiz-adv-x="717" 
d="M586 6q-64 16 -130.5 46t-129.5 71.5t-119 91.5t-101 105l62 49h7q32 -39 79.5 -84t107 -87t128 -74.5t141.5 -47.5zM279 0v82h35q27 0 52 -1.5t41 -3.5l16 -2l94 7h140v-7l-23 -75h-355zM282 -200q-77 0 -131 20t-82.5 54t-28.5 76q0 66 65.5 99t173.5 33v-82
q-75 0 -117 -14t-49 -38q7 -29 52.5 -47.5t114.5 -18.5q16 0 37 1t44 3l14 -71v-10q-26 -3 -50.5 -4t-42.5 -1zM523 -176q-20 0 -34.5 14.5t-14.5 34.5q0 21 14.5 35.5t35.5 14.5q20 0 34.5 -14.5t14.5 -35.5q0 -20 -14.5 -34.5t-35.5 -14.5zM202 444q-20 0 -34.5 14.5
t-14.5 34.5q0 21 14.5 35.5t35.5 14.5q20 0 34.5 -14.5t14.5 -35.5q0 -20 -14.5 -34.5t-35.5 -14.5zM315 444q-20 0 -34.5 14.5t-14.5 34.5q0 21 14.5 35.5t35.5 14.5q20 0 34.5 -14.5t14.5 -35.5q0 -20 -14.5 -34.5t-35.5 -14.5zM258 541q-20 0 -34.5 14.5t-14.5 34.5
q0 21 14.5 35.5t35.5 14.5q20 0 34.5 -14.5t14.5 -35.5q0 -20 -14.5 -34.5t-35.5 -14.5z" />
    <glyph glyph-name="uni08C6" unicode="&#x8c6;" horiz-adv-x="717" 
d="M586 6q-64 16 -130.5 46t-129.5 71.5t-119 91.5t-101 105l62 49h7q32 -39 79.5 -84t107 -87t128 -74.5t141.5 -47.5zM279 0v82h35q27 0 52 -1.5t41 -3.5l16 -2l94 7h140v-7l-23 -75h-355zM282 -200q-77 0 -131 20t-82.5 54t-28.5 76q0 66 65.5 99t173.5 33v-82
q-75 0 -117 -14t-49 -38q7 -29 52.5 -47.5t114.5 -18.5q16 0 37 1t44 3l14 -71v-10q-26 -3 -50.5 -4t-42.5 -1zM524 -176q-21 0 -35.5 14.5t-14.5 35.5q0 20 14.5 34.5t35.5 14.5t35 -14.5t14 -34.5q0 -21 -14.5 -35.5t-34.5 -14.5zM490 -255q-12 0 -21 8.5t-9 20.5
q0 13 8.5 21.5t21.5 8.5q12 0 21 -8.5t9 -21.5q0 -12 -9 -20.5t-21 -8.5zM558 -255q-13 0 -21.5 8.5t-8.5 20.5q0 13 8.5 21.5t21.5 8.5q12 0 21 -8.5t9 -21.5q0 -12 -9 -20.5t-21 -8.5zM524 -314q-13 0 -21.5 9t-8.5 21t8.5 21t21.5 9q12 0 21 -8.5t9 -21.5q0 -12 -9 -21
t-21 -9z" />
    <glyph glyph-name="uni088A" unicode="&#x88a;" horiz-adv-x="717" 
d="M586 6q-64 16 -130.5 46t-129.5 71.5t-119 91.5t-101 105l62 49h7q32 -39 79.5 -84t107 -87t128 -74.5t141.5 -47.5zM279 0v82h35q27 0 52 -1.5t41 -3.5l16 -2l94 7h140v-7l-23 -75h-355zM282 -200q-77 0 -131 20t-82.5 54t-28.5 76q0 66 65.5 99t173.5 33v-82
q-75 0 -117 -14t-49 -38q7 -29 52.5 -47.5t114.5 -18.5q16 0 37 1t44 3l14 -71v-10q-26 -3 -50.5 -4t-42.5 -1zM497 -53l60 -7l48 -162l-2 -4h-47l-35 143l5 2l-33 -145h-48l-2 4l46 162z" />
    <glyph glyph-name="uni0630" unicode="&#x630;" horiz-adv-x="554" 
d="M407 102q0 26 -14.5 47.5t-39.5 34t-57 12.5h-149v11l9 71h140q53 0 98 -22.5t71.5 -62.5t26.5 -91h-85zM27 0l-3 7l41 75h126v-82h-164zM65 0v82h251q25 0 49.5 -1.5t40.5 -3.5l16 -2v-75h-357zM114 196l-4 7l41 75h118v-82h-155zM416 0q-2 17 -5.5 41.5t-3.5 60.5h85
q0 -32 3 -53l5 -35l-15 -14h-69zM252 374q-20 0 -34.5 14.5t-14.5 34.5q0 21 14.5 35.5t35.5 14.5q20 0 34.5 -14.5t14.5 -35.5q0 -20 -14.5 -34.5t-35.5 -14.5z" />
    <glyph glyph-name="uni0688" unicode="&#x688;" horiz-adv-x="554" 
d="M407 102q0 26 -14.5 47.5t-39.5 34t-57 12.5h-149v11l9 71h140q53 0 98 -22.5t71.5 -62.5t26.5 -91h-85zM27 0l-3 7l41 75h126v-82h-164zM65 0v82h251q25 0 49.5 -1.5t40.5 -3.5l16 -2v-75h-357zM114 196l-4 7l41 75h118v-82h-155zM416 0q-2 17 -5.5 41.5t-3.5 60.5h85
q0 -32 3 -53l5 -35l-15 -14h-69zM307 423q0 15 -12 25.5t-30 10.5h-56v47h56q38 0 66.5 -23.5t28.5 -59.5h-53zM141 374l-2 3l22 43h40v-46h-60zM201 374v46h71q14 0 28 -1l14 -1v-44h-113zM312 374q-1 13 -3 26t-2 23h53q0 -10 1.5 -22.5t2.5 -21.5l-6 -5h-46zM169 374v175
l54 4v-179h-54z" />
    <glyph glyph-name="uni0689" unicode="&#x689;" horiz-adv-x="554" 
d="M407 102q0 26 -14.5 47.5t-39.5 34t-57 12.5h-149v11l9 71h140q53 0 98 -22.5t71.5 -62.5t26.5 -91h-85zM27 0l-3 7l41 75h126v-82h-164zM65 0v82h251q25 0 49.5 -1.5t40.5 -3.5l16 -2v-75h-357zM114 196l-4 7l41 75h118v-82h-155zM416 0q-2 17 -5.5 41.5t-3.5 60.5h85
q0 -32 3 -53l5 -35l-15 -14h-69zM277 -140q-43 0 -68.5 23t-25.5 63q0 43 27 73t67 30q39 0 66 -29t27 -74q0 -41 -25.5 -63.5t-67.5 -22.5zM277 -91q44 0 44 40q0 22 -12.5 36.5t-31.5 14.5t-32 -15t-13 -37q0 -39 45 -39z" />
    <glyph glyph-name="uni068A" unicode="&#x68a;" horiz-adv-x="554" 
d="M407 102q0 26 -14.5 47.5t-39.5 34t-57 12.5h-149v11l9 71h140q53 0 98 -22.5t71.5 -62.5t26.5 -91h-85zM27 0l-3 7l41 75h126v-82h-164zM65 0v82h251q25 0 49.5 -1.5t40.5 -3.5l16 -2v-75h-357zM114 196l-4 7l41 75h118v-82h-155zM416 0q-2 17 -5.5 41.5t-3.5 60.5h85
q0 -32 3 -53l5 -35l-15 -14h-69zM276 -195q-20 0 -34.5 14.5t-14.5 34.5q0 21 14.5 35.5t35.5 14.5q20 0 34.5 -14.5t14.5 -35.5q0 -20 -14.5 -34.5t-35.5 -14.5z" />
    <glyph glyph-name="uni068B" unicode="&#x68b;" horiz-adv-x="554" 
d="M407 102q0 26 -14.5 47.5t-39.5 34t-57 12.5h-149v11l9 71h140q53 0 98 -22.5t71.5 -62.5t26.5 -91h-85zM27 0l-3 7l41 75h126v-82h-164zM65 0v82h251q25 0 49.5 -1.5t40.5 -3.5l16 -2v-75h-357zM114 196l-4 7l41 75h118v-82h-155zM416 0q-2 17 -5.5 41.5t-3.5 60.5h85
q0 -32 3 -53l5 -35l-15 -14h-69zM276 -195q-20 0 -34.5 14.5t-14.5 34.5q0 21 14.5 35.5t35.5 14.5q20 0 34.5 -14.5t14.5 -35.5q0 -20 -14.5 -34.5t-35.5 -14.5zM307 423q0 15 -12 25.5t-30 10.5h-56v47h56q38 0 66.5 -23.5t28.5 -59.5h-53zM141 374l-2 3l22 43h40v-46h-60
zM201 374v46h71q14 0 28 -1l14 -1v-44h-113zM312 374q-1 13 -3 26t-2 23h53q0 -10 1.5 -22.5t2.5 -21.5l-6 -5h-46zM169 374v175l54 4v-179h-54z" />
    <glyph glyph-name="uni068C" unicode="&#x68c;" horiz-adv-x="554" 
d="M407 102q0 26 -14.5 47.5t-39.5 34t-57 12.5h-149v11l9 71h140q53 0 98 -22.5t71.5 -62.5t26.5 -91h-85zM27 0l-3 7l41 75h126v-82h-164zM65 0v82h251q25 0 49.5 -1.5t40.5 -3.5l16 -2v-75h-357zM114 196l-4 7l41 75h118v-82h-155zM416 0q-2 17 -5.5 41.5t-3.5 60.5h85
q0 -32 3 -53l5 -35l-15 -14h-69zM195 374q-20 0 -34.5 14.5t-14.5 34.5q0 21 14.5 35.5t35.5 14.5q20 0 34.5 -14.5t14.5 -35.5q0 -20 -14.5 -34.5t-35.5 -14.5zM308 374q-20 0 -34.5 14.5t-14.5 34.5q0 21 14.5 35.5t35.5 14.5q20 0 34.5 -14.5t14.5 -35.5
q0 -20 -14.5 -34.5t-35.5 -14.5z" />
    <glyph glyph-name="uni068D" unicode="&#x68d;" horiz-adv-x="554" 
d="M407 102q0 26 -14.5 47.5t-39.5 34t-57 12.5h-149v11l9 71h140q53 0 98 -22.5t71.5 -62.5t26.5 -91h-85zM27 0l-3 7l41 75h126v-82h-164zM65 0v82h251q25 0 49.5 -1.5t40.5 -3.5l16 -2v-75h-357zM114 196l-4 7l41 75h118v-82h-155zM416 0q-2 17 -5.5 41.5t-3.5 60.5h85
q0 -32 3 -53l5 -35l-15 -14h-69zM220 -195q-20 0 -34.5 14.5t-14.5 34.5q0 21 14.5 35.5t35.5 14.5q20 0 34.5 -14.5t14.5 -35.5q0 -20 -14.5 -34.5t-35.5 -14.5zM333 -195q-20 0 -34.5 14.5t-14.5 34.5q0 21 14.5 35.5t35.5 14.5q20 0 34.5 -14.5t14.5 -35.5
q0 -20 -14.5 -34.5t-35.5 -14.5z" />
    <glyph glyph-name="uni068E" unicode="&#x68e;" horiz-adv-x="554" 
d="M407 102q0 26 -14.5 47.5t-39.5 34t-57 12.5h-149v11l9 71h140q53 0 98 -22.5t71.5 -62.5t26.5 -91h-85zM27 0l-3 7l41 75h126v-82h-164zM65 0v82h251q25 0 49.5 -1.5t40.5 -3.5l16 -2v-75h-357zM114 196l-4 7l41 75h118v-82h-155zM416 0q-2 17 -5.5 41.5t-3.5 60.5h85
q0 -32 3 -53l5 -35l-15 -14h-69zM195 374q-20 0 -34.5 14.5t-14.5 34.5q0 21 14.5 35.5t35.5 14.5q20 0 34.5 -14.5t14.5 -35.5q0 -20 -14.5 -34.5t-35.5 -14.5zM308 374q-20 0 -34.5 14.5t-14.5 34.5q0 21 14.5 35.5t35.5 14.5q20 0 34.5 -14.5t14.5 -35.5
q0 -20 -14.5 -34.5t-35.5 -14.5zM252 472q-20 0 -34.5 14.5t-14.5 34.5q0 21 14.5 35.5t35.5 14.5q20 0 34.5 -14.5t14.5 -35.5q0 -20 -14.5 -34.5t-35.5 -14.5z" />
    <glyph glyph-name="uni068F" unicode="&#x68f;" horiz-adv-x="554" 
d="M407 102q0 26 -14.5 47.5t-39.5 34t-57 12.5h-149v11l9 71h140q53 0 98 -22.5t71.5 -62.5t26.5 -91h-85zM27 0l-3 7l41 75h126v-82h-164zM65 0v82h251q25 0 49.5 -1.5t40.5 -3.5l16 -2v-75h-357zM114 196l-4 7l41 75h118v-82h-155zM416 0q-2 17 -5.5 41.5t-3.5 60.5h85
q0 -32 3 -53l5 -35l-15 -14h-69zM195 472q-20 0 -34.5 14.5t-14.5 34.5q0 21 14.5 35.5t35.5 14.5q20 0 34.5 -14.5t14.5 -35.5q0 -20 -14.5 -34.5t-35.5 -14.5zM308 472q-20 0 -34.5 14.5t-14.5 34.5q0 21 14.5 35.5t35.5 14.5q20 0 34.5 -14.5t14.5 -35.5
q0 -20 -14.5 -34.5t-35.5 -14.5zM252 374q-20 0 -34.5 14.5t-14.5 34.5q0 21 14.5 35.5t35.5 14.5q20 0 34.5 -14.5t14.5 -35.5q0 -20 -14.5 -34.5t-35.5 -14.5z" />
    <glyph glyph-name="uni0690" unicode="&#x690;" horiz-adv-x="554" 
d="M407 102q0 26 -14.5 47.5t-39.5 34t-57 12.5h-149v11l9 71h140q53 0 98 -22.5t71.5 -62.5t26.5 -91h-85zM27 0l-3 7l41 75h126v-82h-164zM65 0v82h251q25 0 49.5 -1.5t40.5 -3.5l16 -2v-75h-357zM114 196l-4 7l41 75h118v-82h-155zM416 0q-2 17 -5.5 41.5t-3.5 60.5h85
q0 -32 3 -53l5 -35l-15 -14h-69zM195 374q-20 0 -34.5 14.5t-14.5 34.5q0 21 14.5 35.5t35.5 14.5q20 0 34.5 -14.5t14.5 -35.5q0 -20 -14.5 -34.5t-35.5 -14.5zM195 487q-20 0 -34.5 14.5t-14.5 34.5q0 21 14.5 35.5t35.5 14.5q20 0 34.5 -14.5t14.5 -35.5
q0 -20 -14.5 -34.5t-35.5 -14.5zM308 374q-20 0 -34.5 14.5t-14.5 34.5q0 21 14.5 35.5t35.5 14.5q20 0 34.5 -14.5t14.5 -35.5q0 -20 -14.5 -34.5t-35.5 -14.5zM308 487q-20 0 -34.5 14.5t-14.5 34.5q0 21 14.5 35.5t35.5 14.5q20 0 34.5 -14.5t14.5 -35.5
q0 -20 -14.5 -34.5t-35.5 -14.5z" />
    <glyph glyph-name="uni06EE" unicode="&#x6ee;" horiz-adv-x="554" 
d="M407 102q0 26 -14.5 47.5t-39.5 34t-57 12.5h-149v11l9 71h140q53 0 98 -22.5t71.5 -62.5t26.5 -91h-85zM27 0l-3 7l41 75h126v-82h-164zM65 0v82h251q25 0 49.5 -1.5t40.5 -3.5l16 -2v-75h-357zM114 196l-4 7l41 75h118v-82h-155zM416 0q-2 17 -5.5 41.5t-3.5 60.5h85
q0 -32 3 -53l5 -35l-15 -14h-69zM226 547l60 -7l48 -162l-2 -4h-47l-35 143l5 2l-33 -145h-48l-2 4l46 162z" />
    <glyph glyph-name="uni0759" unicode="&#x759;" horiz-adv-x="554" 
d="M407 102q0 26 -14.5 47.5t-39.5 34t-57 12.5h-149v11l9 71h140q53 0 98 -22.5t71.5 -62.5t26.5 -91h-85zM27 0l-3 7l41 75h126v-82h-164zM65 0v82h251q25 0 49.5 -1.5t40.5 -3.5l16 -2v-75h-357zM114 196l-4 7l41 75h118v-82h-155zM416 0q-2 17 -5.5 41.5t-3.5 60.5h85
q0 -32 3 -53l5 -35l-15 -14h-69zM326 -259q0 -20 -14.5 -34.5t-34.5 -14.5q-21 0 -35.5 14.5t-14.5 35.5q0 20 14.5 34.5t35.5 14.5q20 0 34.5 -14.5t14.5 -35.5zM326 -146q0 -20 -14.5 -34.5t-34.5 -14.5q-21 0 -35.5 14.5t-14.5 35.5q0 20 14.5 34.5t35.5 14.5
q20 0 34.5 -14.5t14.5 -35.5zM307 423q0 15 -12 25.5t-30 10.5h-56v47h56q38 0 66.5 -23.5t28.5 -59.5h-53zM141 374l-2 3l22 43h40v-46h-60zM201 374v46h71q14 0 28 -1l14 -1v-44h-113zM312 374q-1 13 -3 26t-2 23h53q0 -10 1.5 -22.5t2.5 -21.5l-6 -5h-46zM169 374v175
l54 4v-179h-54z" />
    <glyph glyph-name="uni075A" unicode="&#x75a;" horiz-adv-x="554" 
d="M407 102q0 26 -14.5 47.5t-39.5 34t-57 12.5h-149v11l9 71h140q53 0 98 -22.5t71.5 -62.5t26.5 -91h-85zM27 0l-3 7l41 75h126v-82h-164zM65 0v82h251q25 0 49.5 -1.5t40.5 -3.5l16 -2v-75h-357zM114 196l-4 7l41 75h118v-82h-155zM416 0q-2 17 -5.5 41.5t-3.5 60.5h85
q0 -32 3 -53l5 -35l-15 -14h-69zM250 -96l60 -7l48 -162l-2 -4h-47l-35 143l5 2l-33 -145h-48l-2 4l46 162z" />
    <glyph glyph-name="uni08AE" unicode="&#x8ae;" horiz-adv-x="554" 
d="M407 102q0 26 -14.5 47.5t-39.5 34t-57 12.5h-149v11l9 71h140q53 0 98 -22.5t71.5 -62.5t26.5 -91h-85zM27 0l-3 7l41 75h126v-82h-164zM65 0v82h251q25 0 49.5 -1.5t40.5 -3.5l16 -2v-75h-357zM114 196l-4 7l41 75h118v-82h-155zM416 0q-2 17 -5.5 41.5t-3.5 60.5h85
q0 -32 3 -53l5 -35l-15 -14h-69zM220 -195q-20 0 -34.5 14.5t-14.5 34.5q0 21 14.5 35.5t35.5 14.5q20 0 34.5 -14.5t14.5 -35.5q0 -20 -14.5 -34.5t-35.5 -14.5zM333 -195q-20 0 -34.5 14.5t-14.5 34.5q0 21 14.5 35.5t35.5 14.5q20 0 34.5 -14.5t14.5 -35.5
q0 -20 -14.5 -34.5t-35.5 -14.5zM276 -292q-20 0 -34.5 14.5t-14.5 34.5q0 21 14.5 35.5t35.5 14.5q20 0 34.5 -14.5t14.5 -35.5q0 -20 -14.5 -34.5t-35.5 -14.5z" />
    <glyph glyph-name="uni0632" unicode="&#x632;" horiz-adv-x="258" 
d="M0 -200v82q63 0 90.5 36.5t27.5 126.5v307l82 10l3 -8v-309q0 -75 -20 -130t-65 -85t-118 -30zM161 458q-20 0 -34.5 14.5t-14.5 34.5q0 21 14.5 35.5t35.5 14.5q20 0 34.5 -14.5t14.5 -35.5q0 -20 -14.5 -34.5t-35.5 -14.5z" />
    <glyph glyph-name="uni0691" unicode="&#x691;" horiz-adv-x="258" 
d="M0 -200v82q63 0 90.5 36.5t27.5 126.5v307l82 10l3 -8v-309q0 -75 -20 -130t-65 -85t-118 -30zM216 507q0 15 -12 25.5t-30 10.5h-56v47h56q38 0 66.5 -23.5t28.5 -59.5h-53zM50 458l-2 3l22 43h40v-46h-60zM110 458v46h71q14 0 28 -1l14 -1v-44h-113zM221 458
q-1 13 -3 26t-2 23h53q0 -10 1.5 -22.5t2.5 -21.5l-6 -5h-46zM78 458v175l54 4v-179h-54z" />
    <glyph glyph-name="uni0692" unicode="&#x692;" horiz-adv-x="258" 
d="M0 -200v82q63 0 90.5 36.5t27.5 126.5v307l82 10l3 -8v-309q0 -75 -20 -130t-65 -85t-118 -30zM135 458l-8 7l-46 162l2 4h48l33 -144l-5 1l35 143h47l2 -4l-48 -162z" />
    <glyph glyph-name="uni0693" unicode="&#x693;" horiz-adv-x="258" 
d="M0 -200v82q63 0 90.5 36.5t27.5 126.5v307l82 10l3 -8v-309q0 -75 -20 -130t-65 -85t-118 -30zM115 -319q-43 0 -68.5 23t-25.5 63q0 43 27 73t67 30q39 0 66 -29t27 -74q0 -41 -25.5 -63.5t-67.5 -22.5zM115 -270q44 0 44 40q0 22 -12.5 36.5t-31.5 14.5t-32 -15
t-13 -37q0 -39 45 -39z" />
    <glyph glyph-name="uni0694" unicode="&#x694;" horiz-adv-x="258" 
d="M0 -200v82q63 0 90.5 36.5t27.5 126.5v307l82 10l3 -8v-309q0 -75 -20 -130t-65 -85t-118 -30zM98 -398q-20 0 -34.5 14.5t-14.5 34.5q0 21 14.5 35.5t35.5 14.5q20 0 34.5 -14.5t14.5 -35.5q0 -20 -14.5 -34.5t-35.5 -14.5z" />
    <glyph glyph-name="uni0695" unicode="&#x695;" horiz-adv-x="258" 
d="M0 -200v82q63 0 90.5 36.5t27.5 126.5v307l82 10l3 -8v-309q0 -75 -20 -130t-65 -85t-118 -30zM72 -472l-8 7l-46 162l2 4h48l33 -144l-5 1l35 143h47l2 -4l-48 -162z" />
    <glyph glyph-name="uni0696" unicode="&#x696;" horiz-adv-x="258" 
d="M0 -200v82q63 0 90.5 36.5t27.5 126.5v307l82 10l3 -8v-309q0 -75 -20 -130t-65 -85t-118 -30zM16 25q-20 0 -34.5 14.5t-14.5 34.5q0 21 14.5 35.5t35.5 14.5q20 0 34.5 -14.5t14.5 -35.5q0 -20 -14.5 -34.5t-35.5 -14.5zM98 -398q-20 0 -34.5 14.5t-14.5 34.5
q0 21 14.5 35.5t35.5 14.5q20 0 34.5 -14.5t14.5 -35.5q0 -20 -14.5 -34.5t-35.5 -14.5z" />
    <glyph glyph-name="uni0697" unicode="&#x697;" horiz-adv-x="258" 
d="M0 -200v82q63 0 90.5 36.5t27.5 126.5v307l82 10l3 -8v-309q0 -75 -20 -130t-65 -85t-118 -30zM104 458q-20 0 -34.5 14.5t-14.5 34.5q0 21 14.5 35.5t35.5 14.5q20 0 34.5 -14.5t14.5 -35.5q0 -20 -14.5 -34.5t-35.5 -14.5zM217 458q-20 0 -34.5 14.5t-14.5 34.5
q0 21 14.5 35.5t35.5 14.5q20 0 34.5 -14.5t14.5 -35.5q0 -20 -14.5 -34.5t-35.5 -14.5z" />
    <glyph glyph-name="uni0698" unicode="&#x698;" horiz-adv-x="258" 
d="M0 -200v82q63 0 90.5 36.5t27.5 126.5v307l82 10l3 -8v-309q0 -75 -20 -130t-65 -85t-118 -30zM104 458q-20 0 -34.5 14.5t-14.5 34.5q0 21 14.5 35.5t35.5 14.5q20 0 34.5 -14.5t14.5 -35.5q0 -20 -14.5 -34.5t-35.5 -14.5zM217 458q-20 0 -34.5 14.5t-14.5 34.5
q0 21 14.5 35.5t35.5 14.5q20 0 34.5 -14.5t14.5 -35.5q0 -20 -14.5 -34.5t-35.5 -14.5zM161 555q-20 0 -34.5 14.5t-14.5 34.5q0 21 14.5 35.5t35.5 14.5q20 0 34.5 -14.5t14.5 -35.5q0 -20 -14.5 -34.5t-35.5 -14.5z" />
    <glyph glyph-name="uni0699" unicode="&#x699;" horiz-adv-x="258" 
d="M0 -200v82q63 0 90.5 36.5t27.5 126.5v307l82 10l3 -8v-309q0 -75 -20 -130t-65 -85t-118 -30zM104 458q-20 0 -34.5 14.5t-14.5 34.5q0 21 14.5 35.5t35.5 14.5q20 0 34.5 -14.5t14.5 -35.5q0 -20 -14.5 -34.5t-35.5 -14.5zM104 571q-20 0 -34.5 14.5t-14.5 34.5
q0 21 14.5 35.5t35.5 14.5q20 0 34.5 -14.5t14.5 -35.5q0 -20 -14.5 -34.5t-35.5 -14.5zM217 458q-20 0 -34.5 14.5t-14.5 34.5q0 21 14.5 35.5t35.5 14.5q20 0 34.5 -14.5t14.5 -35.5q0 -20 -14.5 -34.5t-35.5 -14.5zM217 571q-20 0 -34.5 14.5t-14.5 34.5q0 21 14.5 35.5
t35.5 14.5q20 0 34.5 -14.5t14.5 -35.5q0 -20 -14.5 -34.5t-35.5 -14.5z" />
    <glyph glyph-name="uni06EF" unicode="&#x6ef;" horiz-adv-x="258" 
d="M0 -200v82q63 0 90.5 36.5t27.5 126.5v307l82 10l3 -8v-309q0 -75 -20 -130t-65 -85t-118 -30zM135 631l60 -7l48 -162l-2 -4h-47l-35 143l5 2l-33 -145h-48l-2 4l46 162z" />
    <glyph glyph-name="uni076B" unicode="&#x76b;" horiz-adv-x="258" 
d="M0 -200v82q63 0 90.5 36.5t27.5 126.5v307l82 10l3 -8v-309q0 -75 -20 -130t-65 -85t-118 -30zM210 507q0 -20 -14.5 -34.5t-34.5 -14.5q-21 0 -35.5 14.5t-14.5 35.5q0 20 14.5 34.5t35.5 14.5q20 0 34.5 -14.5t14.5 -35.5zM210 620q0 -20 -14.5 -34.5t-34.5 -14.5
q-21 0 -35.5 14.5t-14.5 35.5q0 20 14.5 34.5t35.5 14.5q20 0 34.5 -14.5t14.5 -35.5z" />
    <glyph glyph-name="uni076C" unicode="&#x76c;" horiz-adv-x="258" 
d="M0 -200v82q63 0 90.5 36.5t27.5 126.5v307l82 10l3 -8v-309q0 -75 -20 -130t-65 -85t-118 -30zM103 497q-15 21 -15 42q0 24 16 42t38.5 33.5t43.5 28.5h3l31 -45q-42 -25 -56 -41.5t-14 -26.5q0 -8 4.5 -12.5t12.5 -4.5zM73 458v55h3q12 0 21 -2l9 -2l15 4h127v-4
l-15 -51h-160z" />
    <glyph glyph-name="uni0771" unicode="&#x771;" horiz-adv-x="258" 
d="M0 -200v82q63 0 90.5 36.5t27.5 126.5v307l82 10l3 -8v-309q0 -75 -20 -130t-65 -85t-118 -30zM104 458q-20 0 -34.5 14.5t-14.5 34.5q0 21 14.5 35.5t35.5 14.5q20 0 34.5 -14.5t14.5 -35.5q0 -20 -14.5 -34.5t-35.5 -14.5zM217 458q-20 0 -34.5 14.5t-14.5 34.5
q0 21 14.5 35.5t35.5 14.5q20 0 34.5 -14.5t14.5 -35.5q0 -20 -14.5 -34.5t-35.5 -14.5zM216 657q0 15 -12 25.5t-30 10.5h-56v47h56q38 0 66.5 -23.5t28.5 -59.5h-53zM50 608l-2 3l22 43h40v-46h-60zM110 608v46h71q14 0 28 -1l14 -1v-44h-113zM221 608q-1 13 -3 26t-2 23
h53q0 -10 1.5 -22.5t2.5 -21.5l-6 -5h-46zM78 608v175l54 4v-179h-54z" />
    <glyph glyph-name="uni08B2" unicode="&#x8b2;" horiz-adv-x="258" 
d="M0 -200v82q63 0 90.5 36.5t27.5 126.5v307l82 10l3 -8v-309q0 -75 -20 -130t-65 -85t-118 -30zM161 458q-20 0 -34.5 14.5t-14.5 34.5q0 21 14.5 35.5t35.5 14.5q20 0 34.5 -14.5t14.5 -35.5q0 -20 -14.5 -34.5t-35.5 -14.5zM135 781l60 -7l48 -162l-2 -4h-47l-35 143
l5 2l-33 -145h-48l-2 4l46 162z" />
    <glyph glyph-name="uni0634" unicode="&#x634;" horiz-adv-x="1033" 
d="M281 -232q-110 0 -173.5 69t-63.5 191h83q0 -87 39.5 -132t114.5 -45q77 0 120 46t43 131h85q0 -81 -31.5 -139.5t-87 -89.5t-129.5 -31zM44 28v54l80 11l3 -8v-57h-83zM444 28v229l82 10l3 -8v-231h-85zM480 0v82h428v-82h-428zM670 0l3 42l-3 32.5t-6 83.5t-3 107v40
l83 10l3 -8v-60q0 -41 2.5 -82t5 -75.5t5 -55l2.5 -20.5l-15 -14h-77zM888 0l3 42l-3 32.5t-6 83.5t-3 107v87l82 10l3 -8v-107q0 -41 2.5 -82t5 -75.5t5 -55l2.5 -20.5l-15 -14h-76zM645 414q-20 0 -34.5 14.5t-14.5 34.5q0 21 14.5 35.5t35.5 14.5q20 0 34.5 -14.5
t14.5 -35.5q0 -20 -14.5 -34.5t-35.5 -14.5zM758 414q-20 0 -34.5 14.5t-14.5 34.5q0 21 14.5 35.5t35.5 14.5q20 0 34.5 -14.5t14.5 -35.5q0 -20 -14.5 -34.5t-35.5 -14.5zM701 511q-20 0 -34.5 14.5t-14.5 34.5q0 21 14.5 35.5t35.5 14.5q20 0 34.5 -14.5t14.5 -35.5
q0 -20 -14.5 -34.5t-35.5 -14.5z" />
    <glyph glyph-name="uni069A" unicode="&#x69a;" horiz-adv-x="1033" 
d="M281 -232q-110 0 -173.5 69t-63.5 191h83q0 -87 39.5 -132t114.5 -45q77 0 120 46t43 131h85q0 -81 -31.5 -139.5t-87 -89.5t-129.5 -31zM44 28v54l80 11l3 -8v-57h-83zM444 28v229l82 10l3 -8v-231h-85zM480 0v82h428v-82h-428zM670 0l3 42l-3 32.5t-6 83.5t-3 107v40
l83 10l3 -8v-60q0 -41 2.5 -82t5 -75.5t5 -55l2.5 -20.5l-15 -14h-77zM888 0l3 42l-3 32.5t-6 83.5t-3 107v87l82 10l3 -8v-107q0 -41 2.5 -82t5 -75.5t5 -55l2.5 -20.5l-15 -14h-76zM721 -195q-20 0 -34.5 14.5t-14.5 34.5q0 21 14.5 35.5t35.5 14.5q20 0 34.5 -14.5
t14.5 -35.5q0 -20 -14.5 -34.5t-35.5 -14.5zM701 414q-20 0 -34.5 14.5t-14.5 34.5q0 21 14.5 35.5t35.5 14.5q20 0 34.5 -14.5t14.5 -35.5q0 -20 -14.5 -34.5t-35.5 -14.5z" />
    <glyph glyph-name="uni069B" unicode="&#x69b;" horiz-adv-x="1033" 
d="M281 -232q-110 0 -173.5 69t-63.5 191h83q0 -87 39.5 -132t114.5 -45q77 0 120 46t43 131h85q0 -81 -31.5 -139.5t-87 -89.5t-129.5 -31zM44 28v54l80 11l3 -8v-57h-83zM444 28v229l82 10l3 -8v-231h-85zM480 0v82h428v-82h-428zM670 0l3 42l-3 32.5t-6 83.5t-3 107v40
l83 10l3 -8v-60q0 -41 2.5 -82t5 -75.5t5 -55l2.5 -20.5l-15 -14h-77zM888 0l3 42l-3 32.5t-6 83.5t-3 107v87l82 10l3 -8v-107q0 -41 2.5 -82t5 -75.5t5 -55l2.5 -20.5l-15 -14h-76zM665 -195q-20 0 -34.5 14.5t-14.5 34.5q0 21 14.5 35.5t35.5 14.5q20 0 34.5 -14.5
t14.5 -35.5q0 -20 -14.5 -34.5t-35.5 -14.5zM778 -195q-20 0 -34.5 14.5t-14.5 34.5q0 21 14.5 35.5t35.5 14.5q20 0 34.5 -14.5t14.5 -35.5q0 -20 -14.5 -34.5t-35.5 -14.5zM721 -292q-20 0 -34.5 14.5t-14.5 34.5q0 21 14.5 35.5t35.5 14.5q20 0 34.5 -14.5t14.5 -35.5
q0 -20 -14.5 -34.5t-35.5 -14.5z" />
    <glyph glyph-name="uni069C" unicode="&#x69c;" horiz-adv-x="1033" 
d="M281 -232q-110 0 -173.5 69t-63.5 191h83q0 -87 39.5 -132t114.5 -45q77 0 120 46t43 131h85q0 -81 -31.5 -139.5t-87 -89.5t-129.5 -31zM44 28v54l80 11l3 -8v-57h-83zM444 28v229l82 10l3 -8v-231h-85zM480 0v82h428v-82h-428zM670 0l3 42l-3 32.5t-6 83.5t-3 107v40
l83 10l3 -8v-60q0 -41 2.5 -82t5 -75.5t5 -55l2.5 -20.5l-15 -14h-77zM888 0l3 42l-3 32.5t-6 83.5t-3 107v87l82 10l3 -8v-107q0 -41 2.5 -82t5 -75.5t5 -55l2.5 -20.5l-15 -14h-76zM645 414q-20 0 -34.5 14.5t-14.5 34.5q0 21 14.5 35.5t35.5 14.5q20 0 34.5 -14.5
t14.5 -35.5q0 -20 -14.5 -34.5t-35.5 -14.5zM758 414q-20 0 -34.5 14.5t-14.5 34.5q0 21 14.5 35.5t35.5 14.5q20 0 34.5 -14.5t14.5 -35.5q0 -20 -14.5 -34.5t-35.5 -14.5zM701 511q-20 0 -34.5 14.5t-14.5 34.5q0 21 14.5 35.5t35.5 14.5q20 0 34.5 -14.5t14.5 -35.5
q0 -20 -14.5 -34.5t-35.5 -14.5zM665 -195q-20 0 -34.5 14.5t-14.5 34.5q0 21 14.5 35.5t35.5 14.5q20 0 34.5 -14.5t14.5 -35.5q0 -20 -14.5 -34.5t-35.5 -14.5zM778 -195q-20 0 -34.5 14.5t-14.5 34.5q0 21 14.5 35.5t35.5 14.5q20 0 34.5 -14.5t14.5 -35.5
q0 -20 -14.5 -34.5t-35.5 -14.5zM721 -292q-20 0 -34.5 14.5t-14.5 34.5q0 21 14.5 35.5t35.5 14.5q20 0 34.5 -14.5t14.5 -35.5q0 -20 -14.5 -34.5t-35.5 -14.5z" />
    <glyph glyph-name="uni06FA" unicode="&#x6fa;" horiz-adv-x="1033" 
d="M281 -232q-110 0 -173.5 69t-63.5 191h83q0 -87 39.5 -132t114.5 -45q77 0 120 46t43 131h85q0 -81 -31.5 -139.5t-87 -89.5t-129.5 -31zM44 28v54l80 11l3 -8v-57h-83zM444 28v229l82 10l3 -8v-231h-85zM480 0v82h428v-82h-428zM670 0l3 42l-3 32.5t-6 83.5t-3 107v40
l83 10l3 -8v-60q0 -41 2.5 -82t5 -75.5t5 -55l2.5 -20.5l-15 -14h-77zM888 0l3 42l-3 32.5t-6 83.5t-3 107v87l82 10l3 -8v-107q0 -41 2.5 -82t5 -75.5t5 -55l2.5 -20.5l-15 -14h-76zM645 414q-20 0 -34.5 14.5t-14.5 34.5q0 21 14.5 35.5t35.5 14.5q20 0 34.5 -14.5
t14.5 -35.5q0 -20 -14.5 -34.5t-35.5 -14.5zM758 414q-20 0 -34.5 14.5t-14.5 34.5q0 21 14.5 35.5t35.5 14.5q20 0 34.5 -14.5t14.5 -35.5q0 -20 -14.5 -34.5t-35.5 -14.5zM701 511q-20 0 -34.5 14.5t-14.5 34.5q0 21 14.5 35.5t35.5 14.5q20 0 34.5 -14.5t14.5 -35.5
q0 -20 -14.5 -34.5t-35.5 -14.5zM721 -195q-20 0 -34.5 14.5t-14.5 34.5q0 21 14.5 35.5t35.5 14.5q20 0 34.5 -14.5t14.5 -35.5q0 -20 -14.5 -34.5t-35.5 -14.5z" />
    <glyph glyph-name="uni075C" unicode="&#x75c;" horiz-adv-x="1033" 
d="M281 -232q-110 0 -173.5 69t-63.5 191h83q0 -87 39.5 -132t114.5 -45q77 0 120 46t43 131h85q0 -81 -31.5 -139.5t-87 -89.5t-129.5 -31zM44 28v54l80 11l3 -8v-57h-83zM444 28v229l82 10l3 -8v-231h-85zM480 0v82h428v-82h-428zM670 0l3 42l-3 32.5t-6 83.5t-3 107v40
l83 10l3 -8v-60q0 -41 2.5 -82t5 -75.5t5 -55l2.5 -20.5l-15 -14h-77zM888 0l3 42l-3 32.5t-6 83.5t-3 107v87l82 10l3 -8v-107q0 -41 2.5 -82t5 -75.5t5 -55l2.5 -20.5l-15 -14h-76zM645 414q-20 0 -34.5 14.5t-14.5 34.5q0 21 14.5 35.5t35.5 14.5q20 0 34.5 -14.5
t14.5 -35.5q0 -20 -14.5 -34.5t-35.5 -14.5zM645 527q-20 0 -34.5 14.5t-14.5 34.5q0 21 14.5 35.5t35.5 14.5q20 0 34.5 -14.5t14.5 -35.5q0 -20 -14.5 -34.5t-35.5 -14.5zM758 414q-20 0 -34.5 14.5t-14.5 34.5q0 21 14.5 35.5t35.5 14.5q20 0 34.5 -14.5t14.5 -35.5
q0 -20 -14.5 -34.5t-35.5 -14.5zM758 527q-20 0 -34.5 14.5t-14.5 34.5q0 21 14.5 35.5t35.5 14.5q20 0 34.5 -14.5t14.5 -35.5q0 -20 -14.5 -34.5t-35.5 -14.5z" />
    <glyph glyph-name="uni076D" unicode="&#x76d;" horiz-adv-x="1033" 
d="M281 -232q-110 0 -173.5 69t-63.5 191h83q0 -87 39.5 -132t114.5 -45q77 0 120 46t43 131h85q0 -81 -31.5 -139.5t-87 -89.5t-129.5 -31zM44 28v54l80 11l3 -8v-57h-83zM444 28v229l82 10l3 -8v-231h-85zM480 0v82h428v-82h-428zM670 0l3 42l-3 32.5t-6 83.5t-3 107v40
l83 10l3 -8v-60q0 -41 2.5 -82t5 -75.5t5 -55l2.5 -20.5l-15 -14h-77zM888 0l3 42l-3 32.5t-6 83.5t-3 107v87l82 10l3 -8v-107q0 -41 2.5 -82t5 -75.5t5 -55l2.5 -20.5l-15 -14h-76zM751 463q0 -20 -14.5 -34.5t-34.5 -14.5q-21 0 -35.5 14.5t-14.5 35.5q0 20 14.5 34.5
t35.5 14.5q20 0 34.5 -14.5t14.5 -35.5zM751 576q0 -20 -14.5 -34.5t-34.5 -14.5q-21 0 -35.5 14.5t-14.5 35.5q0 20 14.5 34.5t35.5 14.5q20 0 34.5 -14.5t14.5 -35.5z" />
    <glyph glyph-name="uni0770" unicode="&#x770;" horiz-adv-x="1033" 
d="M281 -232q-110 0 -173.5 69t-63.5 191h83q0 -87 39.5 -132t114.5 -45q77 0 120 46t43 131h85q0 -81 -31.5 -139.5t-87 -89.5t-129.5 -31zM44 28v54l80 11l3 -8v-57h-83zM444 28v229l82 10l3 -8v-231h-85zM480 0v82h428v-82h-428zM670 0l3 42l-3 32.5t-6 83.5t-3 107v40
l83 10l3 -8v-60q0 -41 2.5 -82t5 -75.5t5 -55l2.5 -20.5l-15 -14h-77zM888 0l3 42l-3 32.5t-6 83.5t-3 107v87l82 10l3 -8v-107q0 -41 2.5 -82t5 -75.5t5 -55l2.5 -20.5l-15 -14h-76zM645 414q-20 0 -34.5 14.5t-14.5 34.5q0 21 14.5 35.5t35.5 14.5q20 0 34.5 -14.5
t14.5 -35.5q0 -20 -14.5 -34.5t-35.5 -14.5zM758 414q-20 0 -34.5 14.5t-14.5 34.5q0 21 14.5 35.5t35.5 14.5q20 0 34.5 -14.5t14.5 -35.5q0 -20 -14.5 -34.5t-35.5 -14.5zM757 613q0 15 -12 25.5t-30 10.5h-56v47h56q38 0 66.5 -23.5t28.5 -59.5h-53zM591 564l-2 3l22 43
h40v-46h-60zM651 564v46h71q14 0 28 -1l14 -1v-44h-113zM762 564q-1 13 -3 26t-2 23h53q0 -10 1.5 -22.5t2.5 -21.5l-6 -5h-46zM619 564v175l54 4v-179h-54z" />
    <glyph glyph-name="uni077E" unicode="&#x77e;" horiz-adv-x="1033" 
d="M281 -232q-110 0 -173.5 69t-63.5 191h83q0 -87 39.5 -132t114.5 -45q77 0 120 46t43 131h85q0 -81 -31.5 -139.5t-87 -89.5t-129.5 -31zM44 28v54l80 11l3 -8v-57h-83zM444 28v229l82 10l3 -8v-231h-85zM480 0v82h428v-82h-428zM670 0l3 42l-3 32.5t-6 83.5t-3 107v40
l83 10l3 -8v-60q0 -41 2.5 -82t5 -75.5t5 -55l2.5 -20.5l-15 -14h-77zM888 0l3 42l-3 32.5t-6 83.5t-3 107v87l82 10l3 -8v-107q0 -41 2.5 -82t5 -75.5t5 -55l2.5 -20.5l-15 -14h-76zM675 587l60 -7l48 -162l-2 -4h-47l-35 143l5 2l-33 -145h-48l-2 4l46 162z" />
    <glyph glyph-name="uni0636" unicode="&#x636;" horiz-adv-x="1217" 
d="M444 29v339l82 10l3 -8v-341h-85zM498 196v82h381v-82h-381zM498 0v82h381v-82h-381zM281 -231q-110 0 -173.5 69t-63.5 191h83q0 -87 39.5 -132.5t114.5 -45.5q77 0 120 46.5t43 131.5h85q0 -81 -31.5 -139.5t-87.5 -89.5t-129 -31zM44 29v54l80 11l3 -8v-57h-83z
M444 29v323l82 10l3 -8v-325h-85zM1070 102q0 26 -14.5 47.5t-39.5 34t-57 12.5h-149v11l9 71h140q53 0 98 -22.5t71.5 -62.5t26.5 -91h-85zM690 0l-3 7l41 75h126v-82h-164zM728 0v82h251q25 0 49.5 -1.5t40.5 -3.5l16 -2v-75h-357zM777 196l-4 7l41 75h118v-82h-155z
M1079 0q-2 17 -5.5 41.5t-3.5 60.5h85q0 -32 3 -53l5 -35l-15 -14h-69zM767 374q-20 0 -34.5 14.5t-14.5 34.5q0 21 14.5 35.5t35.5 14.5q20 0 34.5 -14.5t14.5 -35.5q0 -20 -14.5 -34.5t-35.5 -14.5z" />
    <glyph glyph-name="uni069D" unicode="&#x69d;" horiz-adv-x="1217" 
d="M444 29v339l82 10l3 -8v-341h-85zM498 196v82h381v-82h-381zM498 0v82h381v-82h-381zM281 -231q-110 0 -173.5 69t-63.5 191h83q0 -87 39.5 -132.5t114.5 -45.5q77 0 120 46.5t43 131.5h85q0 -81 -31.5 -139.5t-87.5 -89.5t-129 -31zM44 29v54l80 11l3 -8v-57h-83z
M444 29v323l82 10l3 -8v-325h-85zM1070 102q0 26 -14.5 47.5t-39.5 34t-57 12.5h-149v11l9 71h140q53 0 98 -22.5t71.5 -62.5t26.5 -91h-85zM690 0l-3 7l41 75h126v-82h-164zM728 0v82h251q25 0 49.5 -1.5t40.5 -3.5l16 -2v-75h-357zM777 196l-4 7l41 75h118v-82h-155z
M1079 0q-2 17 -5.5 41.5t-3.5 60.5h85q0 -32 3 -53l5 -35l-15 -14h-69zM744 -201q-20 0 -34.5 14.5t-14.5 34.5q0 21 14.5 35.5t35.5 14.5q20 0 34.5 -14.5t14.5 -35.5q0 -20 -14.5 -34.5t-35.5 -14.5zM857 -201q-20 0 -34.5 14.5t-14.5 34.5q0 21 14.5 35.5t35.5 14.5
q20 0 34.5 -14.5t14.5 -35.5q0 -20 -14.5 -34.5t-35.5 -14.5z" />
    <glyph glyph-name="uni069E" unicode="&#x69e;" horiz-adv-x="1217" 
d="M444 29v339l82 10l3 -8v-341h-85zM498 196v82h381v-82h-381zM498 0v82h381v-82h-381zM281 -231q-110 0 -173.5 69t-63.5 191h83q0 -87 39.5 -132.5t114.5 -45.5q77 0 120 46.5t43 131.5h85q0 -81 -31.5 -139.5t-87.5 -89.5t-129 -31zM44 29v54l80 11l3 -8v-57h-83z
M444 29v323l82 10l3 -8v-325h-85zM1070 102q0 26 -14.5 47.5t-39.5 34t-57 12.5h-149v11l9 71h140q53 0 98 -22.5t71.5 -62.5t26.5 -91h-85zM690 0l-3 7l41 75h126v-82h-164zM728 0v82h251q25 0 49.5 -1.5t40.5 -3.5l16 -2v-75h-357zM777 196l-4 7l41 75h118v-82h-155z
M1079 0q-2 17 -5.5 41.5t-3.5 60.5h85q0 -32 3 -53l5 -35l-15 -14h-69zM711 374q-20 0 -34.5 14.5t-14.5 34.5q0 21 14.5 35.5t35.5 14.5q20 0 34.5 -14.5t14.5 -35.5q0 -20 -14.5 -34.5t-35.5 -14.5zM824 374q-20 0 -34.5 14.5t-14.5 34.5q0 21 14.5 35.5t35.5 14.5
q20 0 34.5 -14.5t14.5 -35.5q0 -20 -14.5 -34.5t-35.5 -14.5zM767 472q-20 0 -34.5 14.5t-14.5 34.5q0 21 14.5 35.5t35.5 14.5q20 0 34.5 -14.5t14.5 -35.5q0 -20 -14.5 -34.5t-35.5 -14.5z" />
    <glyph glyph-name="uni06FB" unicode="&#x6fb;" horiz-adv-x="1217" 
d="M444 29v339l82 10l3 -8v-341h-85zM498 196v82h381v-82h-381zM498 0v82h381v-82h-381zM281 -231q-110 0 -173.5 69t-63.5 191h83q0 -87 39.5 -132.5t114.5 -45.5q77 0 120 46.5t43 131.5h85q0 -81 -31.5 -139.5t-87.5 -89.5t-129 -31zM44 29v54l80 11l3 -8v-57h-83z
M444 29v323l82 10l3 -8v-325h-85zM1070 102q0 26 -14.5 47.5t-39.5 34t-57 12.5h-149v11l9 71h140q53 0 98 -22.5t71.5 -62.5t26.5 -91h-85zM690 0l-3 7l41 75h126v-82h-164zM728 0v82h251q25 0 49.5 -1.5t40.5 -3.5l16 -2v-75h-357zM777 196l-4 7l41 75h118v-82h-155z
M1079 0q-2 17 -5.5 41.5t-3.5 60.5h85q0 -32 3 -53l5 -35l-15 -14h-69zM767 374q-20 0 -34.5 14.5t-14.5 34.5q0 21 14.5 35.5t35.5 14.5q20 0 34.5 -14.5t14.5 -35.5q0 -20 -14.5 -34.5t-35.5 -14.5zM801 -201q-20 0 -34.5 14.5t-14.5 34.5q0 21 14.5 35.5t35.5 14.5
q20 0 34.5 -14.5t14.5 -35.5q0 -20 -14.5 -34.5t-35.5 -14.5z" />
    <glyph glyph-name="uni08AF" unicode="&#x8af;" horiz-adv-x="1217" 
d="M444 29v339l82 10l3 -8v-341h-85zM498 196v82h381v-82h-381zM498 0v82h381v-82h-381zM281 -231q-110 0 -173.5 69t-63.5 191h83q0 -87 39.5 -132.5t114.5 -45.5q77 0 120 46.5t43 131.5h85q0 -81 -31.5 -139.5t-87.5 -89.5t-129 -31zM44 29v54l80 11l3 -8v-57h-83z
M444 29v323l82 10l3 -8v-325h-85zM1070 102q0 26 -14.5 47.5t-39.5 34t-57 12.5h-149v11l9 71h140q53 0 98 -22.5t71.5 -62.5t26.5 -91h-85zM690 0l-3 7l41 75h126v-82h-164zM728 0v82h251q25 0 49.5 -1.5t40.5 -3.5l16 -2v-75h-357zM777 196l-4 7l41 75h118v-82h-155z
M1079 0q-2 17 -5.5 41.5t-3.5 60.5h85q0 -32 3 -53l5 -35l-15 -14h-69zM744 -201q-20 0 -34.5 14.5t-14.5 34.5q0 21 14.5 35.5t35.5 14.5q20 0 34.5 -14.5t14.5 -35.5q0 -20 -14.5 -34.5t-35.5 -14.5zM857 -201q-20 0 -34.5 14.5t-14.5 34.5q0 21 14.5 35.5t35.5 14.5
q20 0 34.5 -14.5t14.5 -35.5q0 -20 -14.5 -34.5t-35.5 -14.5zM801 -298q-20 0 -34.5 14.5t-14.5 34.5q0 21 14.5 35.5t35.5 14.5q20 0 34.5 -14.5t14.5 -35.5q0 -20 -14.5 -34.5t-35.5 -14.5z" />
    <glyph glyph-name="uni0638" unicode="&#x638;" horiz-adv-x="894" 
d="M121 0v746l82 10l3 -8v-748h-85zM42 0l-3 7l41 75h126v-82h-164zM175 196v82h381v-82h-381zM175 0v82h381v-82h-381zM747 102q0 26 -14.5 47.5t-39.5 34t-57 12.5h-149v11l9 71h140q53 0 98 -22.5t71.5 -62.5t26.5 -91h-85zM368 0l-4 7l41 75h126v-82h-163zM405 0v82h251
q25 0 49.5 -1.5t40.5 -3.5l16 -2v-75h-357zM454 196l-4 7l41 75h118v-82h-155zM756 0q-2 17 -5.5 41.5t-3.5 60.5h85q0 -32 3 -53l5 -35l-15 -14h-69zM466 374q-20 0 -34.5 14.5t-14.5 34.5q0 21 14.5 35.5t35.5 14.5q20 0 34.5 -14.5t14.5 -35.5q0 -20 -14.5 -34.5
t-35.5 -14.5z" />
    <glyph glyph-name="uni069F" unicode="&#x69f;" horiz-adv-x="894" 
d="M121 0v746l82 10l3 -8v-748h-85zM42 0l-3 7l41 75h126v-82h-164zM175 196v82h381v-82h-381zM175 0v82h381v-82h-381zM747 102q0 26 -14.5 47.5t-39.5 34t-57 12.5h-149v11l9 71h140q53 0 98 -22.5t71.5 -62.5t26.5 -91h-85zM368 0l-4 7l41 75h126v-82h-163zM405 0v82h251
q25 0 49.5 -1.5t40.5 -3.5l16 -2v-75h-357zM454 196l-4 7l41 75h118v-82h-155zM756 0q-2 17 -5.5 41.5t-3.5 60.5h85q0 -32 3 -53l5 -35l-15 -14h-69zM410 374q-20 0 -34.5 14.5t-14.5 34.5q0 21 14.5 35.5t35.5 14.5q20 0 34.5 -14.5t14.5 -35.5q0 -20 -14.5 -34.5
t-35.5 -14.5zM523 374q-20 0 -34.5 14.5t-14.5 34.5q0 21 14.5 35.5t35.5 14.5q20 0 34.5 -14.5t14.5 -35.5q0 -20 -14.5 -34.5t-35.5 -14.5zM466 472q-20 0 -34.5 14.5t-14.5 34.5q0 21 14.5 35.5t35.5 14.5q20 0 34.5 -14.5t14.5 -35.5q0 -20 -14.5 -34.5t-35.5 -14.5z
" />
    <glyph glyph-name="uni08A3" unicode="&#x8a3;" horiz-adv-x="894" 
d="M121 0v746l82 10l3 -8v-748h-85zM42 0l-3 7l41 75h126v-82h-164zM175 196v82h381v-82h-381zM175 0v82h381v-82h-381zM747 102q0 26 -14.5 47.5t-39.5 34t-57 12.5h-149v11l9 71h140q53 0 98 -22.5t71.5 -62.5t26.5 -91h-85zM368 0l-4 7l41 75h126v-82h-163zM405 0v82h251
q25 0 49.5 -1.5t40.5 -3.5l16 -2v-75h-357zM454 196l-4 7l41 75h118v-82h-155zM756 0q-2 17 -5.5 41.5t-3.5 60.5h85q0 -32 3 -53l5 -35l-15 -14h-69zM410 374q-20 0 -34.5 14.5t-14.5 34.5q0 21 14.5 35.5t35.5 14.5q20 0 34.5 -14.5t14.5 -35.5q0 -20 -14.5 -34.5
t-35.5 -14.5zM523 374q-20 0 -34.5 14.5t-14.5 34.5q0 21 14.5 35.5t35.5 14.5q20 0 34.5 -14.5t14.5 -35.5q0 -20 -14.5 -34.5t-35.5 -14.5z" />
    <glyph glyph-name="uni088B" unicode="&#x88b;" horiz-adv-x="894" 
d="M121 0v746l82 10l3 -8v-748h-85zM42 0l-3 7l41 75h126v-82h-164zM175 196v82h381v-82h-381zM175 0v82h381v-82h-381zM747 102q0 26 -14.5 47.5t-39.5 34t-57 12.5h-149v11l9 71h140q53 0 98 -22.5t71.5 -62.5t26.5 -91h-85zM368 0l-4 7l41 75h126v-82h-163zM405 0v82h251
q25 0 49.5 -1.5t40.5 -3.5l16 -2v-75h-357zM454 196l-4 7l41 75h118v-82h-155zM756 0q-2 17 -5.5 41.5t-3.5 60.5h85q0 -32 3 -53l5 -35l-15 -14h-69zM475 -201q-20 0 -34.5 14.5t-14.5 34.5q0 21 14.5 35.5t35.5 14.5q20 0 34.5 -14.5t14.5 -35.5q0 -20 -14.5 -34.5
t-35.5 -14.5z" />
    <glyph glyph-name="uni088C" unicode="&#x88c;" horiz-adv-x="894" 
d="M121 0v746l82 10l3 -8v-748h-85zM42 0l-3 7l41 75h126v-82h-164zM175 196v82h381v-82h-381zM175 0v82h381v-82h-381zM747 102q0 26 -14.5 47.5t-39.5 34t-57 12.5h-149v11l9 71h140q53 0 98 -22.5t71.5 -62.5t26.5 -91h-85zM368 0l-4 7l41 75h126v-82h-163zM405 0v82h251
q25 0 49.5 -1.5t40.5 -3.5l16 -2v-75h-357zM454 196l-4 7l41 75h118v-82h-155zM756 0q-2 17 -5.5 41.5t-3.5 60.5h85q0 -32 3 -53l5 -35l-15 -14h-69zM418 -201q-20 0 -34.5 14.5t-14.5 34.5q0 21 14.5 35.5t35.5 14.5q20 0 34.5 -14.5t14.5 -35.5q0 -20 -14.5 -34.5
t-35.5 -14.5zM531 -201q-20 0 -34.5 14.5t-14.5 34.5q0 21 14.5 35.5t35.5 14.5q20 0 34.5 -14.5t14.5 -35.5q0 -20 -14.5 -34.5t-35.5 -14.5zM475 -298q-20 0 -34.5 14.5t-14.5 34.5q0 21 14.5 35.5t35.5 14.5q20 0 34.5 -14.5t14.5 -35.5q0 -20 -14.5 -34.5t-35.5 -14.5z
" />
    <glyph glyph-name="uni063A" unicode="&#x63a;" horiz-adv-x="543" 
d="M155 47q-32 49 -32 94q0 38 20 70t52 60t69.5 52t72.5 46h7l43 -67q-54 -33 -89.5 -59t-55 -47.5t-28 -38t-8.5 -29.5q0 -18 11.5 -32t31.5 -14zM191 0v82h288v-7l-24 -75h-264zM282 -200q-77 0 -131 20t-82.5 54t-28.5 76q0 66 65.5 99t173.5 33v-82q-75 0 -117 -14
t-49 -38q7 -29 52.5 -47.5t114.5 -18.5q23 0 53 2t59 4l14 -69v-10q-20 -3 -43 -5.5t-44 -3t-37 -0.5zM260 472q-20 0 -34.5 14.5t-14.5 34.5q0 21 14.5 35.5t35.5 14.5q20 0 34.5 -14.5t14.5 -35.5q0 -20 -14.5 -34.5t-35.5 -14.5z" />
    <glyph glyph-name="uni06A0" unicode="&#x6a0;" horiz-adv-x="543" 
d="M155 47q-32 49 -32 94q0 38 20 70t52 60t69.5 52t72.5 46h7l43 -67q-54 -33 -89.5 -59t-55 -47.5t-28 -38t-8.5 -29.5q0 -18 11.5 -32t31.5 -14zM191 0v82h288v-7l-24 -75h-264zM282 -200q-77 0 -131 20t-82.5 54t-28.5 76q0 66 65.5 99t173.5 33v-82q-75 0 -117 -14
t-49 -38q7 -29 52.5 -47.5t114.5 -18.5q23 0 53 2t59 4l14 -69v-10q-20 -3 -43 -5.5t-44 -3t-37 -0.5zM204 472q-20 0 -34.5 14.5t-14.5 34.5q0 21 14.5 35.5t35.5 14.5q20 0 34.5 -14.5t14.5 -35.5q0 -20 -14.5 -34.5t-35.5 -14.5zM317 472q-20 0 -34.5 14.5t-14.5 34.5
q0 21 14.5 35.5t35.5 14.5q20 0 34.5 -14.5t14.5 -35.5q0 -20 -14.5 -34.5t-35.5 -14.5zM260 570q-20 0 -34.5 14.5t-14.5 34.5q0 21 14.5 35.5t35.5 14.5q20 0 34.5 -14.5t14.5 -35.5q0 -20 -14.5 -34.5t-35.5 -14.5z" />
    <glyph glyph-name="uni06FC" unicode="&#x6fc;" horiz-adv-x="543" 
d="M155 47q-32 49 -32 94q0 38 20 70t52 60t69.5 52t72.5 46h7l43 -67q-54 -33 -89.5 -59t-55 -47.5t-28 -38t-8.5 -29.5q0 -18 11.5 -32t31.5 -14zM191 0v82h288v-7l-24 -75h-264zM282 -200q-77 0 -131 20t-82.5 54t-28.5 76q0 66 65.5 99t173.5 33v-82q-75 0 -117 -14
t-49 -38q7 -29 52.5 -47.5t114.5 -18.5q23 0 53 2t59 4l14 -69v-10q-20 -3 -43 -5.5t-44 -3t-37 -0.5zM260 472q-20 0 -34.5 14.5t-14.5 34.5q0 21 14.5 35.5t35.5 14.5q20 0 34.5 -14.5t14.5 -35.5q0 -20 -14.5 -34.5t-35.5 -14.5zM272 -394q-20 0 -34.5 14.5t-14.5 34.5
q0 21 14.5 35.5t35.5 14.5q20 0 34.5 -14.5t14.5 -35.5q0 -20 -14.5 -34.5t-35.5 -14.5z" />
    <glyph glyph-name="uni075D" unicode="&#x75d;" horiz-adv-x="543" 
d="M155 47q-32 49 -32 94q0 38 20 70t52 60t69.5 52t72.5 46h7l43 -67q-54 -33 -89.5 -59t-55 -47.5t-28 -38t-8.5 -29.5q0 -18 11.5 -32t31.5 -14zM191 0v82h288v-7l-24 -75h-264zM282 -200q-77 0 -131 20t-82.5 54t-28.5 76q0 66 65.5 99t173.5 33v-82q-75 0 -117 -14
t-49 -38q7 -29 52.5 -47.5t114.5 -18.5q23 0 53 2t59 4l14 -69v-10q-20 -3 -43 -5.5t-44 -3t-37 -0.5zM204 472q-20 0 -34.5 14.5t-14.5 34.5q0 21 14.5 35.5t35.5 14.5q20 0 34.5 -14.5t14.5 -35.5q0 -20 -14.5 -34.5t-35.5 -14.5zM317 472q-20 0 -34.5 14.5t-14.5 34.5
q0 21 14.5 35.5t35.5 14.5q20 0 34.5 -14.5t14.5 -35.5q0 -20 -14.5 -34.5t-35.5 -14.5z" />
    <glyph glyph-name="uni075E" unicode="&#x75e;" horiz-adv-x="543" 
d="M155 47q-32 49 -32 94q0 38 20 70t52 60t69.5 52t72.5 46h7l43 -67q-54 -33 -89.5 -59t-55 -47.5t-28 -38t-8.5 -29.5q0 -18 11.5 -32t31.5 -14zM191 0v82h288v-7l-24 -75h-264zM282 -200q-77 0 -131 20t-82.5 54t-28.5 76q0 66 65.5 99t173.5 33v-82q-75 0 -117 -14
t-49 -38q7 -29 52.5 -47.5t114.5 -18.5q23 0 53 2t59 4l14 -69v-10q-20 -3 -43 -5.5t-44 -3t-37 -0.5zM204 570q-20 0 -34.5 14.5t-14.5 34.5q0 21 14.5 35.5t35.5 14.5q20 0 34.5 -14.5t14.5 -35.5q0 -20 -14.5 -34.5t-35.5 -14.5zM317 570q-20 0 -34.5 14.5t-14.5 34.5
q0 21 14.5 35.5t35.5 14.5q20 0 34.5 -14.5t14.5 -35.5q0 -20 -14.5 -34.5t-35.5 -14.5zM260 472q-20 0 -34.5 14.5t-14.5 34.5q0 21 14.5 35.5t35.5 14.5q20 0 34.5 -14.5t14.5 -35.5q0 -20 -14.5 -34.5t-35.5 -14.5z" />
    <glyph glyph-name="uni075F" unicode="&#x75f;" horiz-adv-x="543" 
d="M155 47q-32 49 -32 94q0 38 20 70t52 60t69.5 52t72.5 46h7l43 -67q-54 -33 -89.5 -59t-55 -47.5t-28 -38t-8.5 -29.5q0 -18 11.5 -32t31.5 -14zM191 0v82h288v-7l-24 -75h-264zM282 -200q-77 0 -131 20t-82.5 54t-28.5 76q0 66 65.5 99t173.5 33v-82q-75 0 -117 -14
t-49 -38q7 -29 52.5 -47.5t114.5 -18.5q23 0 53 2t59 4l14 -69v-10q-20 -3 -43 -5.5t-44 -3t-37 -0.5zM310 521q0 -20 -14.5 -34.5t-34.5 -14.5q-21 0 -35.5 14.5t-14.5 35.5q0 20 14.5 34.5t35.5 14.5q20 0 34.5 -14.5t14.5 -35.5zM310 634q0 -20 -14.5 -34.5t-34.5 -14.5
q-21 0 -35.5 14.5t-14.5 35.5q0 20 14.5 34.5t35.5 14.5q20 0 34.5 -14.5t14.5 -35.5z" />
    <glyph glyph-name="uni08B3" unicode="&#x8b3;" horiz-adv-x="543" 
d="M155 47q-32 49 -32 94q0 38 20 70t52 60t69.5 52t72.5 46h7l43 -67q-54 -33 -89.5 -59t-55 -47.5t-28 -38t-8.5 -29.5q0 -18 11.5 -32t31.5 -14zM191 0v82h288v-7l-24 -75h-264zM282 -200q-77 0 -131 20t-82.5 54t-28.5 76q0 66 65.5 99t173.5 33v-82q-75 0 -117 -14
t-49 -38q7 -29 52.5 -47.5t114.5 -18.5q23 0 53 2t59 4l14 -69v-10q-20 -3 -43 -5.5t-44 -3t-37 -0.5zM215 -394q-20 0 -34.5 14.5t-14.5 34.5q0 21 14.5 35.5t35.5 14.5q20 0 34.5 -14.5t14.5 -35.5q0 -20 -14.5 -34.5t-35.5 -14.5zM328 -394q-20 0 -34.5 14.5t-14.5 34.5
q0 21 14.5 35.5t35.5 14.5q20 0 34.5 -14.5t14.5 -35.5q0 -20 -14.5 -34.5t-35.5 -14.5zM272 -492q-20 0 -34.5 14.5t-14.5 34.5q0 21 14.5 35.5t35.5 14.5q20 0 34.5 -14.5t14.5 -35.5q0 -20 -14.5 -34.5t-35.5 -14.5z" />
    <glyph glyph-name="uni08C3" unicode="&#x8c3;" horiz-adv-x="543" 
d="M155 47q-32 49 -32 94q0 38 20 70t52 60t69.5 52t72.5 46h7l43 -67q-54 -33 -89.5 -59t-55 -47.5t-28 -38t-8.5 -29.5q0 -18 11.5 -32t31.5 -14zM191 0v82h288v-7l-24 -75h-264zM282 -200q-77 0 -131 20t-82.5 54t-28.5 76q0 66 65.5 99t173.5 33v-82q-75 0 -117 -14
t-49 -38q7 -29 52.5 -47.5t114.5 -18.5q23 0 53 2t59 4l14 -69v-10q-20 -3 -43 -5.5t-44 -3t-37 -0.5zM261 472q-21 0 -35.5 14.5t-14.5 34.5q0 21 14.5 35.5t35.5 14.5t35 -14.5t14 -35.5q0 -20 -14.5 -34.5t-34.5 -14.5zM227 591q-12 0 -21 8t-9 22q0 12 8.5 20.5
t21.5 8.5q12 0 21 -8.5t9 -20.5q0 -14 -9 -22t-21 -8zM295 591q-13 0 -21.5 8t-8.5 22q0 12 8.5 20.5t21.5 8.5q12 0 21 -8.5t9 -20.5q0 -14 -9 -22t-21 -8zM261 649q-13 0 -21.5 8.5t-8.5 21.5q0 12 8.5 20.5t21.5 8.5q12 0 21 -8.5t9 -20.5q0 -13 -9 -21.5t-21 -8.5z" />
    <glyph glyph-name="uni0641" unicode="&#x641;" horiz-adv-x="963" 
d="M467 0q-75 0 -151.5 5.5t-144.5 21.5t-117 47l40 64h11q50 -28 138 -42t224 -14h275q23 0 46 -1t38 -3l15 -2l-21 -3v7.5v7.5q-1 102 -30 158.5t-78 56.5q-24 0 -46 -13.5t-35 -39.5t-13 -62q0 -50 30.5 -78t91.5 -28v-61q-74 0 -119.5 24.5t-66.5 64.5t-21 86
q0 55 24.5 97.5t66 67t90.5 24.5q62 0 104.5 -39t64.5 -106t22 -154q1 -22 2 -42.5t2 -32.5l-9 -11h-433zM713 484q-20 0 -34.5 14.5t-14.5 34.5q0 21 14.5 35.5t35.5 14.5q20 0 34.5 -14.5t14.5 -35.5q0 -20 -14.5 -34.5t-35.5 -14.5z" />
    <glyph glyph-name="uni06A2" unicode="&#x6a2;" horiz-adv-x="963" 
d="M467 0q-75 0 -151.5 5.5t-144.5 21.5t-117 47l40 64h11q50 -28 138 -42t224 -14h275q23 0 46 -1t38 -3l15 -2l-21 -3v7.5v7.5q-1 102 -30 158.5t-78 56.5q-24 0 -46 -13.5t-35 -39.5t-13 -62q0 -50 30.5 -78t91.5 -28v-61q-74 0 -119.5 24.5t-66.5 64.5t-21 86
q0 55 24.5 97.5t66 67t90.5 24.5q62 0 104.5 -39t64.5 -106t22 -154q1 -22 2 -42.5t2 -32.5l-9 -11h-433zM713 -195q-20 0 -34.5 14.5t-14.5 34.5q0 21 14.5 35.5t35.5 14.5q20 0 34.5 -14.5t14.5 -35.5q0 -20 -14.5 -34.5t-35.5 -14.5z" />
    <glyph glyph-name="uni06A3" unicode="&#x6a3;" horiz-adv-x="963" 
d="M467 0q-75 0 -151.5 5.5t-144.5 21.5t-117 47l40 64h11q50 -28 138 -42t224 -14h275q23 0 46 -1t38 -3l15 -2l-21 -3v7.5v7.5q-1 102 -30 158.5t-78 56.5q-24 0 -46 -13.5t-35 -39.5t-13 -62q0 -50 30.5 -78t91.5 -28v-61q-74 0 -119.5 24.5t-66.5 64.5t-21 86
q0 55 24.5 97.5t66 67t90.5 24.5q62 0 104.5 -39t64.5 -106t22 -154q1 -22 2 -42.5t2 -32.5l-9 -11h-433zM713 484q-20 0 -34.5 14.5t-14.5 34.5q0 21 14.5 35.5t35.5 14.5q20 0 34.5 -14.5t14.5 -35.5q0 -20 -14.5 -34.5t-35.5 -14.5zM713 -195q-20 0 -34.5 14.5
t-14.5 34.5q0 21 14.5 35.5t35.5 14.5q20 0 34.5 -14.5t14.5 -35.5q0 -20 -14.5 -34.5t-35.5 -14.5z" />
    <glyph glyph-name="uni06A4" unicode="&#x6a4;" horiz-adv-x="963" 
d="M467 0q-75 0 -151.5 5.5t-144.5 21.5t-117 47l40 64h11q50 -28 138 -42t224 -14h275q23 0 46 -1t38 -3l15 -2l-21 -3v7.5v7.5q-1 102 -30 158.5t-78 56.5q-24 0 -46 -13.5t-35 -39.5t-13 -62q0 -50 30.5 -78t91.5 -28v-61q-74 0 -119.5 24.5t-66.5 64.5t-21 86
q0 55 24.5 97.5t66 67t90.5 24.5q62 0 104.5 -39t64.5 -106t22 -154q1 -22 2 -42.5t2 -32.5l-9 -11h-433zM657 484q-20 0 -34.5 14.5t-14.5 34.5q0 21 14.5 35.5t35.5 14.5q20 0 34.5 -14.5t14.5 -35.5q0 -20 -14.5 -34.5t-35.5 -14.5zM770 484q-20 0 -34.5 14.5t-14.5 34.5
q0 21 14.5 35.5t35.5 14.5q20 0 34.5 -14.5t14.5 -35.5q0 -20 -14.5 -34.5t-35.5 -14.5zM713 581q-20 0 -34.5 14.5t-14.5 34.5q0 21 14.5 35.5t35.5 14.5q20 0 34.5 -14.5t14.5 -35.5q0 -20 -14.5 -34.5t-35.5 -14.5z" />
    </font>
</defs>
</svg>
